<?xml version="1.0" standalone="no"?>
<!DOCTYPE svg PUBLIC "-//W3C//DTD SVG 1.1//EN" "http://www.w3.org/Graphics/SVG/1.1/DTD/svg11.dtd" >
<svg xmlns="http://www.w3.org/2000/svg" xmlns:xlink="http://www.w3.org/1999/xlink" version="1.1">
<metadata>
Created by FontForge 20170731 at Fri May  5 14:18:38 2017
 By Aleksey,,,
Copyright (c) 2012 Natanael Gama (info@ndiscovered.com), with Reserved Font Name 'Cinzel'
</metadata>
<defs>
<font id="CinzelDecorative-Regular" horiz-adv-x="712" >
  <font-face 
    font-family="Cinzel Decorative"
    font-weight="400"
    font-stretch="normal"
    units-per-em="1000"
    panose-1="0 0 5 0 0 0 0 0 0 0"
    ascent="800"
    descent="-200"
    x-height="700"
    cap-height="720"
    bbox="-200 -284 1555 945"
    underline-thickness="50"
    underline-position="-150"
    unicode-range="U+0020-FB02"
  />
<missing-glyph horiz-adv-x="250" 
 />
    <glyph glyph-name=".notdef" horiz-adv-x="250" 
 />
    <glyph glyph-name=".null" horiz-adv-x="0" 
 />
    <glyph glyph-name="nonmarkingreturn" horiz-adv-x="333" 
 />
    <glyph glyph-name="space" unicode=" " horiz-adv-x="250" 
 />
    <glyph glyph-name="exclam" unicode="!" horiz-adv-x="230" 
d="M140 403l-21 -233h-10l-20 233l-12 299h75zM115 -4q-19 0 -32 13t-13 32t13 32t32 13t32 -13t13 -32t-13 -32t-32 -13z" />
    <glyph glyph-name="quotedbl" unicode="&#x22;" horiz-adv-x="315" 
d="M50 505q18 85 18 124.5t-2 70.5l70 14v-21t-5.5 -52.5t-24 -80.5t-47.5 -60zM180 505q18 85 18 124.5t-2 70.5l70 14v-21t-5.5 -52.5t-24 -80.5t-47.5 -60z" />
    <glyph glyph-name="numbersign" unicode="#" horiz-adv-x="536" 
d="M516 467h-113l-38 -220h107v-30h-113l-38 -217h-32l38 217h-168l-38 -217h-32l38 217h-107v30h113l38 220h-107v30h113l35 203h32l-35 -203h168l35 203h32l-35 -203h107v-30zM333 247l38 220h-168l-38 -220h168z" />
    <glyph glyph-name="dollar" unicode="$" horiz-adv-x="469" 
d="M59 41q-4 14 -4 54t15 85h9q-1 -11 -1 -21q0 -54 28 -93t84 -48l25 321l-89 82q-54 50 -54 122.5t49 121.5t122 49l6 74l30 -1l-5 -74q32 -3 61 -9h38v-123h-9q0 56 -44 84q-21 13 -49 17l-21 -280l115 -107q50 -46 50 -113t-23 -109q-48 -86 -174 -87l-7 -88l-30 3l7 88
q-89 10 -129 52zM161 647.5q-33 -33.5 -33 -83.5t41 -87l52 -49l20 255q-47 -2 -80 -35.5zM318 55q39 37 39 94.5t-39 93.5l-75 70l-23 -297q59 2 98 39z" />
    <glyph glyph-name="percent" unicode="%" horiz-adv-x="684" 
d="M311 660q16 -31 16 -64q0 -120 -66 -188q-46 -47 -107 -47t-90 47q-20 32 -20 68q0 122 65 189q46 49 109 49q17 0 35.5 -5t57.5 -28q44 -24 70.5 -24t49 7.5t54 25.5t34.5 19l22 -9l-373 -711l-25 11l356 676q-3 -1 -16.5 -8.5t-19 -10t-18.5 -8t-22 -7.5
q-25 -6 -49.5 -4t-62.5 22zM269 537q6 34 6 63t-8 52q-15 42 -54 42q-60 0 -94 -91q-23 -62 -23 -110t8 -70q15 -42 54 -42t68.5 42t42.5 114zM531 339q61 0 90 -48q20 -32 20 -67q0 -123 -66 -190q-46 -48 -107 -48t-90 48q-20 32 -20 67q0 123 65 190q47 48 108 48z
M583 162q6 34 6 63.5t-8 51.5q-15 42 -54 42t-68.5 -42t-42.5 -115q-6 -33 -6 -62.5t8 -51.5q15 -42 54 -42t68.5 42t42.5 114z" />
    <glyph glyph-name="ampersand" unicode="&#x26;" horiz-adv-x="818" 
d="M1144 -70q-88 -76 -195 -76q-76 0 -165 41q-54 26 -100 61.5t-113 90.5q-91 -60 -205 -60q-57 0 -112 16q-80 22 -134 78q-56 58 -56 141q0 64 30.5 111.5t84.5 75.5q-43 66 -43 137.5t50 119.5t140 48q114 0 177 -71l-14 -113h-10q-3 71 -43 112.5t-101 41.5t-96 -38.5
t-35 -95.5q0 -64 40.5 -118t134 -135t222.5 -190q54 49 89 116q48 89 48 194q0 50 -12 99q-18 75 -78 146t-156 121l5 6q84 -34 143 -88q126 -115 126 -291q0 -110 -59 -216q-34 -60 -83 -106l64 -52q102 -82 204 -117q47 -16 110 -16t137 36zM223 72q71 -54 161 -54
q87 0 164 48q-139 116 -225 191t-127 128q-60 -56 -60 -152t87 -161z" />
    <glyph glyph-name="quotesingle" unicode="'" horiz-adv-x="170" 
d="M35 505q18 85 18 124.5t-2 70.5l70 14v-21t-5.5 -52.5t-24 -80.5t-47.5 -60z" />
    <glyph glyph-name="parenleft" unicode="(" horiz-adv-x="338" 
d="M204.5 73.5q44.5 -124.5 102.5 -164.5l-6 -9q-86 45 -148 168q-63 126 -63 267.5t62 253.5t151 143l6 -8q-63 -30 -106 -138t-43 -248t44.5 -264.5z" />
    <glyph glyph-name="parenright" unicode=")" horiz-adv-x="338" 
d="M135.5 586q-43.5 108 -105.5 138l6 8q89 -31 151 -143t62 -249q0 -146 -63 -270.5t-148 -169.5l-6 9q58 40 101 162q46 127 46 267t-43.5 248z" />
    <glyph glyph-name="asterisk" unicode="*" horiz-adv-x="386" 
d="M348 623l-100 -19l-48 1l39 -26l71 -74l-19 -31l-35 -8l-49 89l-13 46l-14 -46l-48 -89l-35 8l-19 30l70 75l39 26l-47 -1l-101 19l-3 35l24 27l92 -43l38 -29l-16 45l-14 101l33 14l33 -14l-12 -101l-16 -45l37 29l92 44l24 -27z" />
    <glyph glyph-name="plus" unicode="+" horiz-adv-x="481" 
d="M442 332v-45h-179v-178h-45v178h-178v45h178v179h45v-179h179z" />
    <glyph glyph-name="comma" unicode="," horiz-adv-x="185" 
d="M45 -81q27 9 36.5 25t9.5 24q0 25 -20 47q-15 18 -17 25q-3 14 2 26q9 20 33 20q30 0 41 -27.5t11 -44.5q0 -52 -37 -81q-25 -21 -57 -22z" />
    <glyph glyph-name="hyphen" unicode="-" horiz-adv-x="380" 
d="M34 292l6 22h300l6 -22l-6 -23h-300z" />
    <glyph glyph-name="period" unicode="." horiz-adv-x="179" 
d="M90 -4q-19 0 -32 13t-13 32t13 32t32 13t32 -13t13 -32t-13 -32t-32 -13z" />
    <glyph glyph-name="slash" unicode="/" horiz-adv-x="406" 
d="M7 5l361 709l31 -18l-361 -710z" />
    <glyph glyph-name="zero" unicode="0" horiz-adv-x="670" 
d="M335 614q128 0 206.5 -86.5t78.5 -227.5t-78.5 -227.5t-206.5 -86.5t-206.5 86.5t-78.5 227.5t78.5 227.5t206.5 86.5zM335 584q-97 0 -156 -78t-59 -206t59 -206t156 -78q64 0 113 35.5t75.5 100t26.5 148.5q0 128 -59 206t-156 78z" />
    <glyph glyph-name="one" unicode="1" horiz-adv-x="344" 
d="M143 64v473q0 22 -16.5 37.5t-38.5 15.5h-21v10h216v-10h-21q-22 0 -38 -16t-16 -38v-472q0 -31 28 -47q12 -7 27 -7h21v-10h-217l1 10h21q22 0 38 16t16 38z" />
    <glyph glyph-name="two" unicode="2" horiz-adv-x="553" 
d="M253 614q101 0 161 -46t60 -125q0 -69 -50 -138q-18 -25 -31.5 -42.5t-39 -42.5t-39.5 -38.5t-43 -37.5t-40 -32.5t-39.5 -30.5t-32.5 -25h234q43 0 66.5 15.5t51.5 58.5h10l-48 -130h-415v9q341 280 341 432q0 69 -38.5 107.5t-103.5 38.5q-74 0 -116.5 -34.5
t-40.5 -97.5h-10l-17 102q28 25 79.5 41t100.5 16z" />
    <glyph glyph-name="three" unicode="3" horiz-adv-x="503" 
d="M61 541q63 71 172 71q78 0 129.5 -41t51.5 -105t-43 -114t-94 -55q64 -11 110 -58.5t46 -114t-30 -117.5q-63 -107 -200 -137q-38 -8 -73.5 -8t-69.5 6l2 10h10q73 0 138.5 29t106.5 85.5t41 132.5t-56 117.5t-149 41.5l2 10h1q45 0 87 19.5t68.5 57.5t26.5 84
q0 56 -32 91.5t-92.5 35.5t-93 -35.5t-32.5 -88.5v-10h-10z" />
    <glyph glyph-name="four" unicode="4" horiz-adv-x="583" 
d="M416 149v-186q0 -22 12 -33q20 -20 43 -20h11v-10h-198l1 10h10q23 0 39 15t17 37v187h-311v10l366 455h10v-410h43q26 0 35.5 4t19.5 16h10l-21 -75h-87zM351 204v292l-236 -292h236z" />
    <glyph glyph-name="five" unicode="5" horiz-adv-x="498" 
d="M108 351q56 12 101.5 12t84.5 -14q129 -46 129 -184q0 -56 -18.5 -101.5t-45.5 -75t-61 -53.5t-69 -37q-89 -31 -131 -31q-24 0 -48 2l2 10h15.5t47.5 9.5t73.5 31.5t73.5 52t58 76q28 54 28 111.5t-35 98.5q-43 50 -131 50q-52 0 -116 -19l-9 4l78 271l198 15
q54 0 79 50h10l-33 -105l-235 -15z" />
    <glyph glyph-name="six" unicode="6" horiz-adv-x="560" 
d="M296 367q-72 0 -111 -52l-6 9q31 37 72 58.5t83 21.5t79 -18t63 -62q29 -53 29 -129t-56 -142q-57 -68 -157.5 -68t-163.5 75.5t-63 203.5q0 109 37 213q36 100 111 171q76 73 188 86l4 -7q-70 -22 -121.5 -67t-82.5 -107q-61 -120 -61 -281q0 -117 40 -187t111 -70
t105 53.5t34 127.5q0 109 -62 150q-30 21 -72 21z" />
    <glyph glyph-name="seven" unicode="7" horiz-adv-x="502" 
d="M120 545q-29 0 -46 -14.5t-29 -45.5h-10l28 113h400l-108 -288q-30 -81 -73.5 -209.5t-60.5 -200.5h-70q113 284 163 414l88 231h-282z" />
    <glyph glyph-name="eight" unicode="8" horiz-adv-x="552" 
d="M433 38.5q-59 -52.5 -157.5 -52.5t-157 52.5t-58.5 132.5q0 69 37 115.5t107 79.5q-108 78 -108 181q0 72 49 119q50 48 131 48t130.5 -45t49.5 -124q0 -60 -32 -105.5t-91 -66.5q91 -45 125 -90q34 -47 34 -108q0 -84 -59 -136.5zM171 560q0 -98 103 -157l22 -12
q85 63 85 162q0 60 -28 95.5t-77 35.5t-77 -36.5t-28 -87.5zM135 168q0 -69 37.5 -110.5t105 -41.5t103.5 42.5t36 102.5q0 36 -8.5 53.5t-15 27.5t-17 19.5t-18.5 16t-21.5 14t-21.5 12t-23 11.5q-35 18 -58 32q-99 -67 -99 -179z" />
    <glyph glyph-name="nine" unicode="9" horiz-adv-x="560" 
d="M229 195q-101 0 -147 81q-26 47 -26 115q0 97 58 158q60 63 159.5 63t160.5 -75.5t61 -212.5q0 -130 -52 -242q-58 -127 -160 -182q-57 -31 -124 -37l-3 7q68 19 120 63.5t83 106.5q61 121 61 262q0 280 -154 280q-68 0 -101.5 -52t-33.5 -128q0 -79 35.5 -125.5
t96.5 -46.5q44 0 82 25q17 11 31 27l5 -9q-29 -37 -70 -57.5t-82 -20.5z" />
    <glyph glyph-name="colon" unicode=":" horiz-adv-x="179" 
d="M90 379q-19 0 -32 13t-13 31.5t13 32t32 13.5t32 -13.5t13 -32t-13 -31.5t-32 -13zM90 -4q-19 0 -32 13t-13 32t13 32t32 13t32 -13t13 -32t-13 -32t-32 -13z" />
    <glyph glyph-name="semicolon" unicode=";" horiz-adv-x="184" 
d="M90 407q-19 0 -32 13.5t-13 32t13 31.5t32 13t32 -13t13 -31.5t-13 -32t-32 -13.5zM45 -81q27 9 36.5 25t9.5 24q0 25 -20 47q-15 18 -17 25q-3 14 2 26q9 20 33 20q30 0 41 -27.5t11 -44.5q0 -52 -37 -81q-25 -21 -57 -22z" />
    <glyph glyph-name="less" unicode="&#x3c;" horiz-adv-x="481" 
d="M442 523v-48l-343 -165l343 -166v-48l-402 191v45z" />
    <glyph glyph-name="equal" unicode="=" horiz-adv-x="481" 
d="M40 364v45h402v-45h-402zM40 189v45h402v-45h-402z" />
    <glyph glyph-name="greater" unicode="&#x3e;" horiz-adv-x="481" 
d="M40 523l402 -191v-45l-402 -191v48l342 166l-342 165v48z" />
    <glyph glyph-name="question" unicode="?" horiz-adv-x="413" 
d="M168 714q91 0 143 -45t52 -125q0 -62 -40 -111q-33 -41 -66 -71q-59 -54 -71 -95q-7 -20 -7 -44.5t17 -47.5l-6 -5q-44 41 -44 96q0 45 50 103q21 24 42 50q50 61 50 125q0 89 -56 123q-27 17 -64 17q-60 0 -94 -40.5t-34 -107.5v-6h-10l-10 95q23 42 61.5 65.5
t86.5 23.5zM180.5 -4q-18.5 0 -32 13t-13.5 32t13.5 32t32 13t31.5 -13t13 -32t-13 -32t-31.5 -13z" />
    <glyph glyph-name="at" unicode="@" horiz-adv-x="977" 
d="M59 240q0 74 32 155q65 154 207 235q110 63 242 63q208 0 309 -131q68 -89 68 -205q0 -82 -25 -154.5t-59 -124.5t-79 -93q-93 -85 -234 -104q-27 -4 -65 -4q-119 0 -261 60l-4 10q122 -45 226 -45q49 0 94 10q140 31 230.5 137.5t109.5 259.5q3 29 3 73t-17 96
q-25 76 -82 122q-75 62 -194.5 62t-216.5 -56q-123 -72 -187 -216q-41 -91 -41 -170q0 -45 15 -75q20 -42 62 -42q32 0 55.5 19t37 32t30 34t26.5 34.5t26 36.5t23 32l182 250h7l41 -404q3 -23 14.5 -35t26.5 -12h5l-1 -7h-158l1 7h7q13 0 27 10.5t14 26.5l-6 107h-164
q-60 -84 -103 -122q-43 -39 -95 -39t-90.5 46.5t-38.5 120.5zM538 451l-136 -194h147z" />
    <glyph glyph-name="A" unicode="A" 
d="M118 734q65 27 125 27q50 0 103 -37q29 -20 65 -78q24 -40 61 -145l122 -346q42 -116 85.5 -184.5t79.5 -103t75 -48.5t64.5 -14t45.5 4l1 -10q-48 -16 -94 -16t-92 23.5t-86 65.5q-86 87 -146 265l-39 114h-274l-69 -178q-5 -12 -5 -24t10.5 -25.5t32.5 -13.5h8v-10
h-201v10h9q24 0 47 14.5t38 43.5l248 594q-54 77 -134 77q-36 0 -77 -15zM225 281h253l-79 233q-23 67 -42 105z" />
    <glyph glyph-name="B" unicode="B" horiz-adv-x="594" 
d="M395 436q-18 -19 -41 -28q98 -14 149 -69.5t51 -135.5q0 -97 -78 -157t-205 -60t-199 62.5t-72 176.5v12l11 2q20 -149 124 -193v582q-2 27 -20.5 44.5t-44.5 17.5h-12v10h168q94 0 150.5 -43t56.5 -112.5t-38 -108.5zM200 668v-640q33 -5 76 -5q96 0 149.5 51.5
t53.5 133.5q0 44 -16.5 78t-41.5 53q-66 51 -186 51h-1l-1 9h1q51 0 87.5 33.5t36.5 103.5q0 132 -145 132v0h-13z" />
    <glyph glyph-name="C" unicode="C" horiz-adv-x="821" 
d="M797 351q0 -172 -92.5 -268.5t-261.5 -96.5q-114 0 -205.5 48t-142 131t-50.5 185.5t50 185.5t138 130.5t196 47.5q68 0 138.5 -18.5t117.5 -49.5l20 -141h-9q-21 84 -97 131.5t-169 47.5q-133 0 -221.5 -94.5t-88.5 -237.5t91.5 -239.5t239.5 -96.5t241.5 96t93.5 263
h10q1 -12 1 -24z" />
    <glyph glyph-name="D" unicode="D" horiz-adv-x="838" 
d="M-100 554q29 85 97 117t241 32q36 0 182 -3q106 -3 187 -46t126.5 -121.5t45.5 -182.5q0 -157 -99.5 -253.5t-259.5 -96.5h-339l1 10h12q25 0 43 16.5t21 40.5v603q-125 -3 -177 -39q-27 -19 -41 -36.5t-29 -44.5zM223 670v-640h197q127 0 205.5 88t78.5 232
q0 95 -35.5 167.5t-100 112.5t-148.5 40h-197z" />
    <glyph glyph-name="E" unicode="E" horiz-adv-x="607" 
d="M73 10q26 0 44.5 18.5t19.5 44.5v560q0 24 -19 40.5t-45 16.5h-12l-1 10h203q31 0 67.5 6t51.5 12v-126h-10v18q0 24 -16.5 41t-39.5 18h-114v-309h190q20 1 34 15t14 35v14h10v-158h-10v15q0 20 -13.5 34t-33.5 15h-191v-299h213q74 0 113 33t65 98h10l-58 -162h-485v10
h13z" />
    <glyph glyph-name="F" unicode="F" horiz-adv-x="579" 
d="M569 281q0 20 -13.5 34t-33.5 15h-320v-257q0 -26 19 -44.5t45 -18.5h13v-10h-219v10h13q26 0 44.5 18.5t19.5 44.5v560q0 24 -19.5 40.5t-44.5 16.5h-12l-1 10h293q43 0 76 7t43 11v-113h-10v15q0 20 -14 34.5t-35 14.5h-211v-309h319q20 1 34 15t14 35v14h10v-158h-10
v15z" />
    <glyph glyph-name="G" unicode="G" horiz-adv-x="846" 
d="M969 -174q-127 0 -208 81q-60 60 -79 151q-95 -72 -233 -72q-109 0 -198.5 47.5t-140 130.5t-50.5 187t50.5 187.5t139.5 129.5t199 46q138 0 243 -68l20 -141h-9q-30 116 -136 158q-52 21 -118 21q-135 0 -224.5 -94t-89.5 -238.5t90 -239.5t224 -96q65 0 124 23t101 64
v177q0 22 -13 33.5t-37 11.5h-16v10h196v-10h-15q-25 0 -38 -11.5t-12 -33.5v-154q6 -158 103 -226q68 -48 176 -48q45 0 98 9l1 -10q-80 -25 -148 -25z" />
    <glyph glyph-name="H" unicode="H" horiz-adv-x="813" 
d="M729 10h12v-10h-218v10h13q25 0 43.5 17.5t20.5 43.5v260h-387v-261q0 -140 -68 -188q-31 -22 -80 -33l-5 9q45 24 66.5 74t21.5 138v558q0 26 -19 44t-45 18h-12v10h218v-10h-13q-26 0 -44.5 -18t-19.5 -44v-267h387v249q1 128 57 178q34 30 92 43l5 -9q-45 -24 -67 -74
t-22 -138v-537q0 -26 18.5 -44.5t45.5 -18.5z" />
    <glyph glyph-name="I" unicode="I" horiz-adv-x="393" 
d="M321 10h13v-10h-219v10h13q26 0 45 18.5t19 44.5v600l-107 -6q-101 -6 -101 -73q0 -27 17.5 -46t55.5 -21v-6q-14 -3 -28 -3q-44 0 -66 35q-13 20 -13 44q0 85 129 99q1 0 99.5 6.5t155.5 17.5l2 -10q-43 -7 -61 -29t-18 -61v-547q1 -26 19.5 -44.5t44.5 -18.5z" />
    <glyph glyph-name="J" unicode="J" horiz-adv-x="339" 
d="M-80 -135q27 -9 53.5 -9t55.5 11t53 34.5t39.5 70.5t15.5 111v544q-1 26 -19.5 44.5t-44.5 18.5h-13v10h219v-10h-13q-26 0 -44.5 -18t-19.5 -45v-547q0 -68 -21 -119t-53 -77q-60 -47 -133 -47q-43 0 -79 17z" />
    <glyph glyph-name="K" unicode="K" horiz-adv-x="669" 
d="M266 10h13v-10h-219v10h13q26 0 44.5 18.5t19.5 44.5v555q-1 26 -19.5 44t-44.5 18h-13v10h219v-10h-13q-26 0 -44.5 -18t-19.5 -44v-555q0 -26 19 -44.5t45 -18.5zM959 -150v-10q-38 -9 -76 -9q-164 0 -318 164l-331 353l236 296q8 10 8 18t-3 14q-8 15 -29 15h-10v9
h211v-9h-4q-66 0 -108 -47l-233 -269l340 -363q66 -71 148.5 -116.5t168.5 -45.5z" />
    <glyph glyph-name="L" unicode="L" horiz-adv-x="401" 
d="M250 -19q213 -74 319.5 -100.5t183 -26.5t168.5 35l5 -8q-122 -84 -246 -84q-127 0 -289 79q-125 62 -155 75q-107 48 -176 49v10h13q26 0 44.5 18t19.5 45v554q-1 26 -19.5 44.5t-44.5 18.5h-13v10h219v-10h-13q-26 0 -45 -18.5t-19 -44.5v-577q0 -18 2 -27.5t13 -21.5
t33 -20z" />
    <glyph glyph-name="M" unicode="M" horiz-adv-x="931" 
d="M1100 -162h12v-10q-28 -4 -62.5 -4t-85 15t-91.5 56q-84 84 -102 218l-61 445l-208 -470q-28 -61 -34 -102h-10l-259 563l-44 -497q-2 -17 10.5 -30t27.5 -13v0h16v-9h-194v10h16q27 0 47.5 16.5t25.5 43.5l63 546q-88 173 -211 173q-11 0 -23 -1v10q27 7 44 7t37 -1.5
t47 -9.5t51 -23.5t42 -32t34 -36.5q27 -36 43 -69l241 -522l269 603h9l93 -592q21 -140 90.5 -212t166.5 -72z" />
    <glyph glyph-name="N" unicode="N" horiz-adv-x="841" 
d="M1054 -152q-80 -25 -144 -9q-67 18 -116 56q-47 38 -96 91l-527 584v-500q1 -35 31 -52q14 -8 30 -8h19v-10h-206v10h19q25 0 43 17.5t18 43.5v549q-5 7 -20 26.5t-25 31.5t-27 31.5t-31.5 31.5t-33.5 28q-30 23 -64 33t-57.5 10t-50.5 -8l-4 10q48 20 92.5 20
t76.5 -10.5t69 -37.5t60.5 -50t56.5 -60l504 -560v513q-1 26 -19 43.5t-43 17.5h-19v10h206v-10h-18q-25 0 -43 -17.5t-19 -42.5v-565q10 -11 28.5 -33t26 -31t22.5 -26t25.5 -26.5t26 -24t29 -23t30.5 -19.5q24 -14 54.5 -21t50 -7t41.5 4z" />
    <glyph glyph-name="O" unicode="O" horiz-adv-x="929" 
d="M277 467q-4 13 -4 22.5t1 21.5t4.5 33t13.5 41.5t23 39.5t33.5 35t45.5 28q53 26 129 26q153 0 249.5 -101.5t96.5 -259.5t-114 -262.5t-289 -104.5t-290.5 104t-115.5 270q0 107 50 190t143 130l6 -9q-65 -43 -93.5 -124t-28.5 -172q0 -169 92 -264t236 -95t235.5 95.5
t91.5 251.5q0 135 -72.5 228t-204.5 93q-59 0 -107 -21q-87 -37 -115 -122q-8 -25 -8 -43t2 -29z" />
    <glyph glyph-name="P" unicode="P" horiz-adv-x="620" 
d="M352 716q87 0 145 -42q78 -56 78 -175q0 -86 -48 -147q-52 -65 -145 -65q-49 0 -89 23.5t-47 80.5l9 3q11 -43 51 -60q27 -12 48 -12q82 0 119 64q27 47 27 112q0 104 -58 150q-44 36 -112 36q-16 0 -27.5 -1.5t-100.5 -16.5v-593q1 -27 20 -45t44 -18h13v-10h-219v10h13
q25 0 44 18t20 45v541q0 26 -15 40.5t-39 14.5q-5 0 -10 -1l-12 -1l-2 10q52 5 139.5 19.5t108.5 17t45 2.5z" />
    <glyph glyph-name="Q" unicode="Q" horiz-adv-x="919" 
d="M1348.5 -209q-54.5 -14 -97 -18t-75.5 -4q-108 0 -221 37q-44 14 -148 56q-260 104 -362 124v10h3q174 0 266 114q68 85 68 228.5t-90 245.5q-92 105 -239 105q-89 0 -164 -42t-118.5 -120t-43.5 -176q0 -67 23 -125t64 -95q59 -54 137 -54q42 0 84 19q62 28 83 94l9 -3
q-19 -72 -78 -111q-44 -29 -107 -29q-20 0 -43 3q-117 17 -183 100.5t-66 194.5t53.5 196.5t145 131.5t200.5 46q121 0 215 -51t144.5 -135.5t50.5 -185.5q0 -83 -29.5 -150.5t-76.5 -110.5q-94 -86 -212 -102q81 -16 251 -66.5t171 -50.5q144 -40 277 -40q76 0 150 15
q106 20 161 74l4 -5q-27 -43 -111 -85q-41 -21 -95.5 -35z" />
    <glyph glyph-name="R" unicode="R" horiz-adv-x="652" 
d="M948 -170q-42 -11 -74.5 -11t-57.5 4t-53.5 15.5t-53.5 26.5t-50 37q-46 37 -83.5 80t-144.5 161.5t-142 157.5t-54 41v10q58 0 77.5 2.5t41.5 9t37 17.5q59 38 59 126q0 73 -32.5 117t-91.5 45h-124v-596q0 -25 18.5 -44t45.5 -19h12l1 -10h-219v10h13q25 0 44 18t20 44
v555q-1 26 -19.5 44.5t-44.5 18.5h-13v10h270q88 0 141.5 -49.5t53.5 -131t-49 -140t-120 -58.5h-1q34 -36 77 -84q173 -191 222 -240t86.5 -80.5t66.5 -46.5q59 -32 117 -32q12 0 24 2v-10z" />
    <glyph glyph-name="S" unicode="S" horiz-adv-x="549" 
d="M119 266q-52 -68 -52 -147q0 -94 79 -146q46 -31 104.5 -31t101.5 23q81 42 91 141q1 7 1 14q0 37 -20.5 80t-66.5 79l-180 142q-59 46 -59 119t47 123.5t127 50.5q40 0 87 -10h40l2 -123h-10q-1 48 -34.5 75.5t-84 27.5t-84.5 -33.5t-34 -86t44 -87.5l185 -146
q110 -87 110 -210q0 -92 -73 -158q-63 -57 -168 -57q-64 0 -114 24q-94 44 -113 150q-3 16 -3 40.5t14 67t54 85.5z" />
    <glyph glyph-name="T" unicode="T" horiz-adv-x="618" 
d="M-59 501q-31 37 -31 73.5t17 63t55 45t86 18.5h410q31 0 68.5 6t52.5 12v-126l-10 1v17q0 24 -17 41.5t-40 18.5h-190v-599q1 -36 32 -54q15 -8 32 -8h13v-10h-219v10h13q26 0 44.5 18t19.5 43v600h-209q-80 0 -116 -51q-19 -26 -19 -54.5t16 -59.5z" />
    <glyph glyph-name="U" unicode="U" horiz-adv-x="783" 
d="M887 872h17v-10q-110 0 -174 -72.5t-64 -209.5v-333q0 -117 -74 -189t-197 -72t-199.5 71.5t-76.5 188.5v395q0 29 -26 43q-12 6 -27 6h-16v10h203v-10h-16q-22 0 -37 -13.5t-16 -34.5v-382q0 -109 58.5 -175.5t153.5 -66.5q101 0 162 63t61 166v332q0 147 74.5 220
t193.5 73z" />
    <glyph glyph-name="V" unicode="V" horiz-adv-x="718" 
d="M774 896q34 23 81 36t76 13h37v-10q-47 -2 -88 -18.5t-67.5 -38t-51.5 -57t-38.5 -60.5t-31.5 -64l-278 -608q-37 -81 -37 -103h-9l-281 641q-14 32 -38.5 47.5t-49.5 15.5h-8v10h225v-10h-9q-30 0 -40 -28q-2 -6 -2 -14t5 -20l209 -524l248 593q59 139 148 199z" />
    <glyph glyph-name="W" unicode="W" horiz-adv-x="954" 
d="M1191 944h13v-10q-47 -2 -89 -22t-71 -47.5t-54 -66.5q-40 -62 -68 -142l-192 -557q-20 -63 -22 -111h-9l-204 571l-161 -504q-36 -113 -116 -176q-58 -47 -130 -47q-25 0 -53 6l2 10q15 -3 34.5 -3t52 12t64.5 43q65 63 100 158l-202 571q-12 30 -37 45.5t-51 15.5h-8
v10h222v-10h-9q-21 0 -31.5 -13.5t-10.5 -25.5t3 -22l152 -487l186 574l9 -1l198 -554l148 495q26 87 80 157q100 131 254 131z" />
    <glyph glyph-name="X" unicode="X" horiz-adv-x="662" 
d="M659 10h14v-10h-244v10h12q22 0 34 20q7 11 7 21t-5 20l-154 243l-193 -283q-70 -102 -141 -147q-57 -35 -125 -35q-18 0 -36 2v10q70 3 129 55q50 45 95 108q9 11 28 38l212 300l-170 269q-24 35 -61 51q-20 8 -40 8h-14v10h242v-10h-12q-13 0 -25 -10q-25 -21 -11 -51
l135 -212l192 273q66 93 125 130t128 37q13 0 26 -1v-10q-48 -1 -84 -25q-19 -14 -33 -24t-32.5 -32t-27 -32t-27 -35.5t-22.5 -30.5l-216 -296l193 -303q18 -25 44.5 -41.5t56.5 -16.5z" />
    <glyph glyph-name="Y" unicode="Y" horiz-adv-x="618" 
d="M-40 757h25t49 -6t57.5 -17.5t52 -33t43.5 -40t36.5 -48.5t30 -51t25.5 -55q18 -43 29 -74.5t12 -34.5t3 -7q3 -8 5 -14q3 7 14 37t20.5 54t29.5 68t36.5 69.5t42.5 58.5t52 51q64 43 136 43v-10q-56 0 -114.5 -59t-100 -142.5t-68 -173t-26.5 -152.5v-147q0 -36 31 -54
q15 -9 33 -9h12v-10h-218v10h13q25 0 44 18t20 44v149q0 67 -28 157t-72 172.5t-105 139.5t-120 57v10z" />
    <glyph glyph-name="Z" unicode="Z" horiz-adv-x="636" 
d="M996 -89q-93 -108 -250 -108q-120 0 -245 42q-142 48 -224 84q-154 68 -205 71h-12v9l420 662h-337q-34 -1 -51 -30q-8 -14 -8 -30v-18h-10v126q15 -6 53 -12t52.5 -6h15.5h279q42 0 71 5t35 8v-9l-437 -690q9 -2 107 -34q342 -112 507 -112q127 0 234 50z" />
    <glyph glyph-name="bracketleft" unicode="[" horiz-adv-x="332" 
d="M120 -90v812h169v-10l-104 -20v-752l107 -20v-10h-172z" />
    <glyph glyph-name="backslash" unicode="\" horiz-adv-x="406" 
d="M7 696l31 18l361 -709l-31 -19z" />
    <glyph glyph-name="bracketright" unicode="]" horiz-adv-x="332" 
d="M43 722h169v-812h-172v10l107 20v752l-104 20v10z" />
    <glyph glyph-name="asciicircum" unicode="^" horiz-adv-x="523" 
d="M232 371h60l196 -189h-63l-163 154l-164 -154h-63z" />
    <glyph glyph-name="underscore" unicode="_" horiz-adv-x="500" 
d="M0 -90v30h500v-30h-500z" />
    <glyph glyph-name="grave" unicode="`" horiz-adv-x="439" 
d="M240 753l-7 -7q-81 38 -161 85q14 28 41 53q63 -61 127 -131z" />
    <glyph glyph-name="a" unicode="a" 
d="M715 10h8v-10h-225v10h9q21 0 31.5 13.5t10.5 25.5t-4 24l-64 170h-270l-67 -171q-4 -12 -4 -23.5t10.5 -25t31.5 -13.5h9v-10h-201v10h9q25 0 49 16t39 47l226 538q37 81 37 103h9l268 -641q14 -31 38 -47t50 -16zM223 273h246l-120 321z" />
    <glyph glyph-name="b" unicode="b" horiz-adv-x="586" 
d="M304 0h-244l1 10h12q26 0 44.5 18t19.5 44v556q-1 26 -19.5 44t-44.5 18h-12l-1 10h199q103 0 160 -45.5t57 -121.5q0 -60 -32 -99.5t-78 -52.5q79 -12 125 -65t46 -133.5t-61.5 -131.5t-171.5 -51zM202 37h98h2q76 0 118 41t42 117q0 43 -14.5 75.5t-36.5 51.5
q-58 48 -174 48h-1v9q132 0 159 98q6 22 6 49q0 68 -37.5 105t-108.5 37h-53v-631z" />
    <glyph glyph-name="c" unicode="c" horiz-adv-x="760" 
d="M159.5 87q-99.5 100 -99.5 263.5t99.5 263.5t263.5 100q134 0 237 -68l20 -141h-9q-22 86 -89 132.5t-159 46.5q-131 0 -209.5 -91t-78.5 -241t77.5 -241.5t204.5 -94.5q112 0 187 61q81 66 98 215h8l-12 -157q-91 -149 -281 -149q-158 1 -257.5 101z" />
    <glyph glyph-name="d" unicode="d" horiz-adv-x="807" 
d="M658.5 603.5q99.5 -96.5 99.5 -253.5t-99.5 -253.5t-259.5 -96.5h-339v10h13q26 0 44.5 18.5t19.5 44.5v560q0 24 -19.5 40.5t-44.5 16.5h-12l-1 10h339q160 0 259.5 -96.5zM202 670v-640h197q84 0 148.5 40t100 112.5t35.5 167.5q0 144 -78.5 232t-205.5 88h-197z" />
    <glyph glyph-name="e" unicode="e" horiz-adv-x="577" 
d="M73 10q26 0 44.5 18.5t19.5 44.5v560q0 24 -19 40.5t-45 16.5h-12l-1 10h293q31 0 67.5 6t51.5 12v-126h-10v18q0 24 -16.5 41t-39.5 18h-204v-309h169q20 1 34 15t14 35v14h10v-158h-10v15q0 20 -13.5 34t-33.5 15h-170v-299h143q74 0 113 33t65 98h10l-58 -162h-415v10
h13z" />
    <glyph glyph-name="f" unicode="f" horiz-adv-x="541" 
d="M472 689v-84h-10v15q0 20 -14 34.5t-35 14.5h-211v-309h169q20 1 34 15t14 34v15h10v-158h-10v15q0 20 -13.5 34t-33.5 15h-170v-257q0 -26 19 -44.5t45 -18.5h13v-10h-219v10h13q26 0 44.5 18.5t19.5 44.5v560q0 24 -19.5 40.5t-44.5 16.5h-12l-1 10h293q31 0 67.5 6
t51.5 12v-29z" />
    <glyph glyph-name="g" unicode="g" horiz-adv-x="798" 
d="M159.5 87q-99.5 100 -99.5 263t99.5 263.5t259.5 100.5q138 0 243 -68l20 -141h-9q-22 86 -88.5 132.5t-165.5 46.5q-127 0 -205.5 -92t-78.5 -242t78.5 -241.5t205.5 -92.5q65 0 123.5 23t102.5 64v177q0 22 -13.5 33.5t-37.5 11.5h-16v10h196v-10h-15q-25 0 -38 -11.5
t-12 -33.5v-165q-26 -34 -62 -61t-96.5 -47.5t-131.5 -20.5q-160 1 -259.5 101z" />
    <glyph glyph-name="h" unicode="h" horiz-adv-x="813" 
d="M547 10q26 0 44.5 18.5t19.5 43.5v259h-409v-259q0 -26 19 -44t45 -18h13v-10h-219v10h13q26 0 44.5 18t19.5 44v556q-1 26 -19.5 44t-44.5 18h-13v10h219v-10h-13q-26 0 -44.5 -18t-19.5 -44v-267h409v267q-1 36 -32 54q-15 8 -32 8h-13v10h219v-10h-13
q-26 0 -44.5 -18.5t-19.5 -44.5v-555q1 -26 19.5 -44t44.5 -18h13v-10h-219v10h13z" />
    <glyph glyph-name="i" unicode="i" horiz-adv-x="338" 
d="M73 10q26 0 44.5 18.5t19.5 44.5v555q-1 26 -19.5 44t-44.5 18h-13v10h219v-10h-13q-26 0 -44.5 -18t-19.5 -44v-555q0 -26 19 -44.5t45 -18.5h13v-10h-219v10h13z" />
    <glyph glyph-name="j" unicode="j" horiz-adv-x="324" 
d="M266 690q-36 0 -55 -31q-8 -14 -9 -32v-627q0 -84 -52.5 -142t-129.5 -58v9q49 17 83 73.5t34 120.5v624q-1 26 -19.5 44.5t-44.5 18.5h-13v10h219v-10h-13z" />
    <glyph glyph-name="k" unicode="k" horiz-adv-x="657" 
d="M266 10h13v-10h-219v10h13q26 0 44.5 18.5t19.5 44.5v555q-1 26 -19.5 44t-44.5 18h-13v10h219v-10h-13q-26 0 -44.5 -18t-19.5 -44v-555q0 -26 19 -44.5t45 -18.5zM668 0h-43q-102 0 -150 57l-241 291l236 296q8 10 8 18t-3 14q-8 15 -29 15h-10v9h211v-9h-4
q-66 0 -108 -47l-235 -272l273 -321q40 -40 95 -41v-10z" />
    <glyph glyph-name="l" unicode="l" horiz-adv-x="562" 
d="M73 10q26 0 44.5 18.5t19.5 44.5v554q-1 26 -19.5 44.5t-44.5 18.5h-13v10h219v-10h-13q-36 0 -55 -31q-9 -15 -9 -32v-596h143q74 0 113 33t65 98h10l-58 -162h-415v10h13z" />
    <glyph glyph-name="m" unicode="m" horiz-adv-x="931" 
d="M900 10h16v-10h-217v9h15q17 0 29 13t10 30l-45 503l-210 -467q-28 -61 -34 -102h-10l-256 555l-43 -489q-2 -16 10 -29.5t29 -13.5h15v-9h-194v10h16q28 0 48.5 17t24.5 46l75 641h10l279 -603l273 603h9l77 -641q4 -29 25 -46t48 -17z" />
    <glyph glyph-name="n" unicode="n" horiz-adv-x="841" 
d="M778 690q-25 0 -43 -17.5t-19 -42.5v-516q0 -58 7 -110l2 -18h-9l-545 582v-498q0 -25 18 -42.5t43 -17.5h19v-10h-206v10h19q25 0 43 17.5t18 43.5v519q0 61 -7 109l-2 16h10l545 -582v496q-1 26 -19 43.5t-43 17.5h-19v10h206v-10h-18z" />
    <glyph glyph-name="o" unicode="o" horiz-adv-x="848" 
d="M424.5 714q170.5 0 277.5 -100.5t107 -263.5t-107 -263.5t-277.5 -100.5t-277.5 100.5t-107 263.5t107 263.5t277.5 100.5zM424 16q138 0 222.5 92t84.5 242t-84.5 242t-222.5 92t-222.5 -92t-84.5 -242t84.5 -242t222.5 -92z" />
    <glyph glyph-name="p" unicode="p" horiz-adv-x="577" 
d="M527 507q0 -44 -18 -82q-33 -71 -116 -99q-29 -10 -50 -10q-62 0 -107 23v10q73 -16 135 16q55 28 75 92q6 20 6 38v22q-2 70 -37 111.5t-98 41.5h-115v-597q1 -26 19.5 -44.5t44.5 -18.5h13v-10h-219v10h13q26 0 44.5 18.5t19.5 44.5v559q-3 25 -21 41.5t-43 16.5h-12
l-1 10h261q96 0 151 -51.5t55 -141.5z" />
    <glyph glyph-name="q" unicode="q" horiz-adv-x="867" 
d="M1223.5 -188.5q-46.5 -25.5 -93 -38t-82.5 -12.5q-116 0 -220 45q-38 17 -125 62q-197 101 -295 119q-160 8 -259 107t-99 259t106.5 260.5t277.5 100.5t278 -100.5t107 -263.5q0 -143 -83.5 -239t-222.5 -119q105 -32 323 -125q106 -44 216 -44q62 0 125 15
q88 23 147 78l4 -5q-8 -21 -33 -47.5t-71.5 -52zM127 350q0 -150 84.5 -242t222.5 -92t222.5 92t84.5 242t-84.5 242t-222.5 92t-222.5 -92t-84.5 -242z" />
    <glyph glyph-name="r" unicode="r" horiz-adv-x="677" 
d="M266 669h-64v-596q0 -26 18.5 -44.5t45.5 -18.5h12l1 -10h-219v10h13q26 0 44.5 18t19.5 44v555q-1 26 -19.5 44.5t-44.5 18.5h-13v10h270q91 0 143 -50.5t52 -131t-49.5 -139t-120.5 -58.5q15 -7 35.5 -27.5t36.5 -42.5q86 -123 112 -151.5t37 -39t24 -20.5t26 -16
q29 -14 62 -14v-10h-55q-43 0 -80 15.5t-55.5 32t-32 32t-74.5 103.5t-71 100.5t-21 24.5q-32 34 -64 34v10q8 -1 21 -1t32 1q124 3 156 104q6 20 6 37.5v22.5q-2 67 -35 108t-89 44q-24 1 -60 1z" />
    <glyph glyph-name="s" unicode="s" horiz-adv-x="476" 
d="M61 41q-3 14 -3 54t15 85h9q-1 -11 -1 -22q0 -61 37 -101.5t98 -40.5q63 0 103.5 38t40.5 95.5t-39 93.5l-192 178q-54 50 -54 121t47.5 121.5t128.5 50.5q38 0 86 -10h39v-123h-9q0 47 -32.5 75t-83.5 28t-85.5 -34t-34.5 -85t40 -88l197 -182q50 -46 50 -126
t-51 -131.5t-136 -51.5q-44 0 -93.5 13.5t-76.5 41.5z" />
    <glyph glyph-name="t" unicode="t" horiz-adv-x="618" 
d="M589 611q0 24 -17 41.5t-40 18.5h-190v-599q1 -26 19.5 -44t44.5 -18h13v-10h-219v10h13q26 0 44.5 18t19.5 43v600h-190q-24 -1 -40.5 -18.5t-16.5 -41.5v-17l-10 -1v126q15 -6 52 -12t68 -6h338q49 0 81.5 7.5t39.5 10.5v-126l-10 1v17z" />
    <glyph glyph-name="u" unicode="u" horiz-adv-x="785" 
d="M735 690h-16q-21 0 -36.5 -13.5t-16.5 -33.5v-396q0 -117 -74 -189t-197 -72t-199.5 71.5t-76.5 188.5v394q0 30 -26 44q-12 6 -27 6h-16v10h203v-10h-16q-22 0 -37 -13.5t-16 -34.5v-382q0 -109 58.5 -176t156.5 -67t159 63.5t61 166.5v395q-1 21 -16 34.5t-37 13.5h-16
v10h185v-10z" />
    <glyph glyph-name="v" unicode="v" horiz-adv-x="740" 
d="M549 700h201v-10h-9q-25 0 -49 -15.5t-38 -46.5l-241 -539q-37 -81 -37 -103h-9l-281 641q-14 32 -38.5 47.5t-49.5 15.5h-8v10h225v-10h-9q-21 0 -31.5 -13.5t-10.5 -25t5 -23.5l209 -524l218 524q4 12 4 23.5t-10.5 25t-31.5 13.5h-9v10z" />
    <glyph glyph-name="w" unicode="w" horiz-adv-x="982" 
d="M795 700h197v-10h-8q-26 0 -51.5 -15.5t-36.5 -46.5l-166 -529q-20 -63 -22 -111h-9l-204 572l-152 -461q-19 -62 -21 -111h-9l-227 641q-12 30 -37 45.5t-51 15.5h-8v10h222v-10h-9q-21 0 -31.5 -13.5t-10.5 -25.5t3 -22l152 -487l186 574l9 -1l197 -553l134 468
q3 11 3 22.5t-10 24.5t-31 13h-9v10z" />
    <glyph glyph-name="x" unicode="x" horiz-adv-x="662" 
d="M673 0h-244v10h12q22 0 34 20q7 11 7 21t-5 20l-154 243l-154 -242q-6 -10 -6 -20.5t7 -20.5q13 -21 34 -21h13v-10h-227v10h14q30 0 57 17t45 42l191 285l-175 277q-18 25 -44.5 42t-56.5 17h-14v10h242v-10h-12q-21 0 -34 -20q-7 -11 -7 -21t5 -20l138 -216l136 215
q6 10 6 20.5t-6 20.5q-12 21 -34 21h-12v10h225v-10h-14q-30 0 -56.5 -17t-44.5 -42l-175 -258l194 -305q24 -34 61 -50q20 -8 40 -8h14v-10z" />
    <glyph glyph-name="y" unicode="y" horiz-adv-x="661" 
d="M672 690h-14q-30 0 -56.5 -16.5t-44.5 -41.5l-197 -320v-239q0 -26 18.5 -44.5t45.5 -18.5h12v-10h-218v10h13q26 0 44.5 18t19.5 44v241l-191 319q-15 24 -42.5 41t-57.5 17h-14v10h246v-10h-13q-22 0 -34 -20q-6 -11 -6 -21.5t5 -20.5l150 -280l160 281q5 10 5 20
t-7 21q-12 20 -34 20h-12v10h222v-10z" />
    <glyph glyph-name="z" unicode="z" horiz-adv-x="651" 
d="M84 611v-18h-10v126q15 -6 53 -12t52.5 -6h15.5h279q49 0 75 5.5t31 7.5v-9l-428 -675h318q53 0 87.5 34t49.5 90h10l-33 -154h-524v9l420 662h-337q-25 -1 -42 -18t-17 -42z" />
    <glyph glyph-name="braceleft" unicode="{" horiz-adv-x="432" 
d="M398 768l-5 -7q-31 8 -56 8q-44 0 -71 -28q-35 -36 -35 -133l2 -79q0 -47 -8 -91q-6 -31 -24.5 -56.5t-46.5 -38t-55 -12.5q-47 0 -75 33q-17 21 -24 54l8 3q6 -22 21 -39q25 -29 58 -29q42 0 68 39q6 9 9.5 24.5t5.5 26.5t2.5 30.5t0 29.5t-1.5 31.5t-1.5 31t-0.5 42.5
t11 75q29 113 125 113q43 0 93 -28zM393 -121l5 -7q-51 -28 -98 -28q-16 0 -35 7q-64 21 -85 106q-11 44 -11 79t2 69l1.5 31.5t0 30t-2.5 30.5t-5.5 26.5t-10 25t-16 18.5t-23.5 14.5t-31 5.5t-36 -12q-31 -21 -41 -56l-7 3q7 33 24 54q27 34 75 34q52 0 97 -44
q8 -8 14.5 -22t10.5 -22t6.5 -26t3.5 -24.5t1 -27.5v-25t-1 -32.5t-1 -42.5q0 -119 46 -153q18 -14 37 -17.5t35 -3.5t45 9z" />
    <glyph glyph-name="bar" unicode="|" horiz-adv-x="245" 
d="M100 -180v880h45v-880h-45z" />
    <glyph glyph-name="braceright" unicode="}" horiz-adv-x="432" 
d="M202 608q0 97 -35 133q-41 42 -127 20l-5 7q50 28 95 28q16 0 34 -6q66 -19 88 -104q12 -45 12 -81.5t-2 -66.5q-1 -18 -1.5 -28t-0.5 -27t1 -27.5t3.5 -24.5t6.5 -23.5t10 -19.5t15 -17t22.5 -12.5t30.5 -5.5t35 12q31 21 40 56l8 -3q-7 -33 -24 -54q-27 -33 -75 -33
q-64 0 -101 50q-33 46 -33 148zM35 -128l5 7q28 -9 58.5 -9t58.5 21q19 14 29.5 42t13.5 55.5t3 48.5t-2 55q-1 23 -1 27v25t1.5 27.5t4 24.5t6.5 26t10 22t14.5 22t19.5 17q34 27 83 27q16 0 31 -7q49 -19 62 -81l-7 -3q-9 35 -41 56q-18 12 -38 12q-43 0 -68 -39
q-6 -9 -10 -24.5t-5.5 -26.5t-2 -30.5t0 -30l1.5 -31.5t1.5 -30.5t0.5 -41.5t-10 -72q-29 -117 -125 -117q-43 0 -94 28z" />
    <glyph glyph-name="asciitilde" unicode="~" horiz-adv-x="493" 
d="M458 313q0 -39 -23 -64q-33 -35 -89 -35q-36 0 -86 34q-21 14 -41 29q-52 36 -81 36t-42.5 -19t-13.5 -39t3 -36h-45q-3 18 -3 34q0 42 22 68q31 37 83 37q44 0 108 -49q67 -50 99 -50t52 25q13 15 13 33t-6 36h45q5 -22 5 -40z" />
    <glyph glyph-name="exclamdown" unicode="&#xa1;" horiz-adv-x="230" 
d="M115 706q19 0 32 -13.5t13 -32t-13 -31.5t-32 -13t-32 13t-13 31.5t13 32t32 13.5zM90 299l21 230h10l20 -230l12 -299h-75z" />
    <glyph glyph-name="cent" unicode="&#xa2;" horiz-adv-x="602" 
d="M115.5 159.5q-65.5 71.5 -65.5 192.5t77 193t209 72l7 84l30 -1l-6 -85q90 -9 154 -50l18 -122h-7q-31 129 -168 143l-39 -481q100 0 162 49t68 150h8l-8 -118q-33 -53 -93 -82t-140 -29l-7 -84l-29 3l7 83q-112 11 -177.5 82.5zM125 346q0 -137 78 -200q38 -30 92 -38
l39 479q-100 0 -154.5 -63t-54.5 -178z" />
    <glyph glyph-name="sterling" unicode="&#xa3;" horiz-adv-x="577" 
d="M337 46q144 0 201 113h10l-46 -135q-75 -34 -156 -34q-53 0 -147 27q-34 10 -69 10t-62 -27h-10v10q42 34 71.5 118t30.5 201h-110l12 36h97q-1 22 -1 42q0 288 202 307q9 1 31 1t55.5 -15t55.5 -43l-27 -91h-10q2 13 2 26q0 44 -25.5 68.5t-67.5 24.5q-44 0 -72 -18.5
t-43 -45.5q-31 -59 -31 -190q0 -31 1 -66h184l-13 -36h-171q-1 -127 -35 -188q-18 -32 -31 -48t-38 -39q31 10 66.5 7t49.5 -5q70 -10 96 -10z" />
    <glyph glyph-name="currency" unicode="&#xa4;" horiz-adv-x="541" 
d="M410 193q-60 -54 -140 -54t-140 52l-59 -59l-21 22l59 58q-53 60 -53 140.5t54 140.5l-60 60l21 21l60 -60q60 51 139 51t139 -52l61 61l22 -21l-62 -61q52 -60 52 -139.5t-51 -138.5l61 -60l-22 -22zM269.5 169q75.5 0 129 53.5t53.5 129.5t-53.5 129.5t-129 53.5
t-129.5 -53.5t-54 -129.5t54 -129.5t129.5 -53.5z" />
    <glyph glyph-name="yen" unicode="&#xa5;" horiz-adv-x="661" 
d="M672 690h-14q-30 0 -56.5 -16.5t-44.5 -41.5l-134 -217h127v-30h-145l-45 -73v-17h190v-30h-190v-193q0 -26 19 -44t45 -18h12v-10h-218v10h13q26 0 44.5 18.5t19.5 44.5v192h-190v30h190v18l-43 72h-147v30h129l-130 217q-15 24 -42.5 41t-57.5 17h-14v10h246v-10h-13
q-22 0 -34 -20q-6 -11 -6 -21.5t5 -20.5l150 -280l160 281q5 10 5 20t-7 21q-12 20 -34 20h-12v10h222v-10z" />
    <glyph glyph-name="brokenbar" unicode="&#xa6;" horiz-adv-x="245" 
d="M100 350v350h45v-350h-45zM100 -180v350h45v-350h-45z" />
    <glyph glyph-name="section" unicode="&#xa7;" horiz-adv-x="511" 
d="M404 677q17 -18 17 -32q0 -21 -13 -31t-28.5 -2t-32.5 22q-44 40 -86 40q-22 0 -54 -22.5t-32 -54.5q0 -68 161 -230q111 -112 111 -247q0 -81 -45 -154q-38 -63 -99 -96q-45 -24 -100.5 -24t-86.5 33q-17 18 -17 32q0 23 16 35q5 4 12.5 4t24.5 -10.5t38 -29.5
q31 -26 61 -26t56 18q35 24 35 62q0 76 -163 233q-67 64 -90.5 126.5t-23.5 109.5q0 73 43 149q31 52 77 85q62 44 125.5 44t93.5 -34zM139 583q-35 -66 -35 -124q0 -102 120 -211q152 -138 152 -233q0 -15 -5 -30q36 56 36 113q0 106 -118 219q-120 116 -143 189
q-8 26 -8 46t1 31z" />
    <glyph glyph-name="dieresis" unicode="&#xa8;" horiz-adv-x="600" 
d="M186 700q-16 0 -27.5 11.5t-11.5 27.5t11.5 27.5t27.5 11.5t27.5 -11.5t11.5 -27.5t-11.5 -27.5t-27.5 -11.5zM374.5 700q-16.5 0 -27.5 11.5t-11 27.5t11 27.5t27.5 11.5t28 -11.5t11.5 -27.5t-11.5 -27.5t-28 -11.5z" />
    <glyph glyph-name="copyright" unicode="&#xa9;" horiz-adv-x="848" 
d="M424 714q151 0 257.5 -106.5t106.5 -257.5t-106.5 -257.5t-257.5 -106.5t-257.5 106.5t-106.5 257.5t106.5 257.5t257.5 106.5zM424 677q-89 0 -164.5 -43.5t-119 -119t-43.5 -164.5t43.5 -164.5t119 -119t164.5 -43.5t164.5 43.5t119 119t43.5 164.5t-43.5 164.5
t-119 119t-164.5 43.5zM266.5 191q-65.5 64 -65.5 159.5t65.5 159t160 63.5t161.5 -43l14 -100h-6q-13 54 -57.5 85.5t-111.5 31.5t-113.5 -56.5t-46.5 -140t46.5 -139.5t107.5 -57t100.5 15t65 53t29.5 94h6l-7 -97q-26 -43 -75.5 -67.5t-109.5 -24.5q-98 0 -163.5 64z" />
    <glyph glyph-name="ordfeminine" unicode="&#xaa;" horiz-adv-x="368" 
d="M364 383h4v-5h-123v5h5q15 0 21 17q2 8 -2 20l-26 66h-123l-29 -67q-6 -16 1 -26t18 -10h4v-5h-114v5h4q27 0 44 35l112 237q20 44 21 59h5l135 -294q18 -37 43 -37zM130 510h104l-50 128z" />
    <glyph glyph-name="guillemotleft" unicode="&#xab;" horiz-adv-x="425" 
d="M223 485q-44 -112 -118 -193q74 -84 119 -197l-9 -5q-76 119 -175 202q56 46 96.5 90t78.5 108zM385 485q-44 -112 -118 -193q74 -84 119 -197l-9 -5q-76 119 -175 202q56 46 96.5 90t78.5 108z" />
    <glyph glyph-name="logicalnot" unicode="&#xac;" horiz-adv-x="601" 
d="M40 397h522v-202h-45v157h-477v45z" />
    <glyph glyph-name="softhyphen" unicode="&#xad;" horiz-adv-x="380" 
d="M34 292l6 22h300l6 -22l-6 -23h-300z" />
    <glyph glyph-name="registered" unicode="&#xae;" horiz-adv-x="245" 
d="M123 701q47 0 80 -33t33 -80t-33 -80t-80 -33t-80 33t-33 80t33 80t80 33zM122.5 495q38.5 0 66 27.5t27.5 65.5t-27.5 65.5t-66 27.5t-65.5 -27.5t-27 -65.5t27 -65.5t65.5 -27.5zM156.5 643q11.5 -9 11.5 -22.5t-8 -23t-21 -11.5q8 -1 17.5 -16t16 -24t15.5 -12v-2h-12
q-20 0 -28 8t-11 12t-8 13q-13 25 -17 25v2h10q20 4 19.5 27t-24.5 23v0l-12 1v-98q0 -11 10 -11h3v-2h-50v2h2q10 0 11 10v95q-1 11 -11 11h-2v2h37h21q19 0 30.5 -9z" />
    <glyph glyph-name="macron" unicode="&#xaf;" horiz-adv-x="600" 
d="M170 703v35h250v-35h-250z" />
    <glyph glyph-name="degree" unicode="&#xb0;" horiz-adv-x="257" 
d="M128.5 664q40.5 0 69.5 -28.5t29 -69.5t-29 -70t-69.5 -29t-69.5 29t-29 70t29 69.5t69.5 28.5zM128.5 625q-24.5 0 -42 -17t-17.5 -42t17.5 -42t42 -17t42 17t17.5 42t-17.5 42t-42 17z" />
    <glyph glyph-name="plusminus" unicode="&#xb1;" horiz-adv-x="481" 
d="M263 402h179v-45h-179v-178h-45v178h-178v45h178v179h45v-179zM40 60v45h402v-45h-402z" />
    <glyph glyph-name="twosuperior" unicode="&#xb2;" horiz-adv-x="375" 
d="M90.5 702q31.5 12 68 12t70 -15t53.5 -43t20 -61.5t-13 -64t-28.5 -52.5t-44.5 -48q-36 -32 -67.5 -55t-35.5 -25h138q34 0 52 18q12 13 26 38h6l-31 -98h-274v7q12 11 51 44.5t61 55t50 52.5q55 63 55 116t-25.5 79.5t-65.5 26.5q-43 0 -71 -25.5t-27 -68.5h-7l-11 75
q19 20 50.5 32z" />
    <glyph glyph-name="threesuperior" unicode="&#xb3;" horiz-adv-x="310" 
d="M40 675q31 37 90 37t93.5 -25t34.5 -60.5t-26.5 -61.5t-59.5 -33q40 -5 70 -30.5t30 -62.5q0 -88 -70 -130q-47 -29 -109 -29q-30 0 -63 6l1 7h9q77 0 128 37t51 107q0 86 -130 86l1 6q50 0 83 25t33 61.5t-20 54.5t-55 18q-73 0 -73 -70v-5h-7z" />
    <glyph glyph-name="acute" unicode="&#xb4;" horiz-adv-x="439" 
d="M208 746l-7 7q76 82 127 131q26 -27 41 -53q-65 -37 -161 -85z" />
    <glyph glyph-name="paragraph" unicode="&#xb6;" horiz-adv-x="520" 
d="M392 670v-523q0 -59 -9.5 -92t-38.5 -68l-9 8q25 42 26 90q1 15 1 60v525h-83v-670q0 -93 -20 -133q-22 -43 -66 -66l-7 9q41 42 51 75.5t10 67.5t-1 47v333q-85 0 -140.5 50t-55.5 133t56.5 133.5t139.5 50.5h162h7h9t8.5 0.5t10.5 2t10.5 3t12 5t11.5 7.5q12 8 26 25
l7 -6q-29 -65 -105 -67h-13z" />
    <glyph glyph-name="periodcentered" unicode="&#xb7;" horiz-adv-x="170" 
d="M61 363q12 3 30 3t39.5 -13t29.5 -32q-8 -19 -29.5 -32t-45.5 -13t-45.5 13t-29.5 32q12 30 51 42zM85 346q-14 0 -28.5 -7.5t-18.5 -17.5q4 -10 18.5 -17.5t28.5 -7.5t28.5 7.5t18.5 17.5q-4 10 -18.5 17.5t-28.5 7.5z" />
    <glyph glyph-name="cedilla" unicode="&#xb8;" horiz-adv-x="600" 
d="M282 -48q31 11 56 4q49 -13 49 -61t-44 -69q-26 -12 -50.5 -12t-46.5 7l1 10q36 0 63 15t27 46q0 44 -51 44q-17 0 -33 -8l-5 10l48 63h27z" />
    <glyph glyph-name="onesuperior" unicode="&#xb9;" horiz-adv-x="211" 
d="M191 315v-7h-146v7h14q15 0 26 10.5t11 25.5v281q0 33 -31 33h-25v6q32 5 54 13.5t40 29.5h6v-364q0 -14 11 -24.5t26 -10.5h14z" />
    <glyph glyph-name="ordmasculine" unicode="&#xba;" horiz-adv-x="412" 
d="M206 714q73 0 125 -50t52 -122t-52 -122t-125 -50t-124.5 50t-51.5 122t51.5 122t124.5 50zM206.5 391q52.5 0 87 43t34.5 108t-34.5 108t-87 43t-87 -43t-34.5 -108t34.5 -108t87 -43z" />
    <glyph glyph-name="guillemotright" unicode="&#xbb;" horiz-adv-x="425" 
d="M202 95q44 113 119 197q-74 81 -118 193l8 5q38 -64 78.5 -108t96.5 -90q-99 -83 -175 -202zM40 95q44 113 119 197q-74 81 -118 193l8 5q38 -64 78.5 -108t96.5 -90q-99 -83 -175 -202z" />
    <glyph glyph-name="onequarter" unicode="&#xbc;" horiz-adv-x="713" 
d="M578 714l24 -17l-477 -711l-25 16zM211 308h-146v7h14q15 0 26 10.5t11 25.5v281q0 33 -31 33h-25v6q32 5 54 13.5t40 29.5h7v-364q0 -14 10.5 -24.5t25.5 -10.5h14v-7zM617 130v-89q1 -14 11.5 -24.5t25.5 -10.5h7v-7h-132v7h7q15 0 25.5 9.5t11.5 24.5v90h-182v6
l220 269h6v-242h29q17 0 23.5 3t13.5 11h6l-14 -47h-58zM573 163v160l-128 -160h128z" />
    <glyph glyph-name="onehalf" unicode="&#xbd;" horiz-adv-x="805" 
d="M577 714l24 -17l-477 -711l-25 16zM211 315v-7h-146v7h14q15 0 26 10.5t11 25.5v281q0 33 -31 33h-25v6q21 3 35 7q36 9 59 36h6v-364q0 -14 11 -24.5t26 -10.5h14zM583 406q63 0 106 -34t43 -88q0 -101 -131 -200q-17 -13 -35.5 -26.5t-22.5 -15.5h138q28 0 43.5 11.5
t34.5 44.5h6l-31 -98h-274v7q13 12 42.5 37.5t49 43t45.5 44.5t42 49q38 54 38 100.5t-25.5 73t-65.5 26.5q-43 0 -71 -25.5t-27 -68.5h-7l-12 75q20 20 51.5 32t62.5 12z" />
    <glyph glyph-name="threequarters" unicode="&#xbe;" horiz-adv-x="713" 
d="M621 714l24 -17l-477 -711l-25 16zM40 675q31 37 90 37t93.5 -25t34.5 -60.5t-26.5 -61.5t-59.5 -33q56 -7 85 -48q15 -20 15 -45q0 -88 -70 -130q-47 -29 -109 -29q-30 0 -63 6l1 7h24t52 8.5t58 25.5q54 38 54 110q0 86 -130 86l1 6q50 0 83 25t33 61.5t-20 54.5
t-55 18q-73 0 -73 -70v-5h-7zM622 130v-89q0 -14 11 -24.5t26 -10.5h7v-7h-132v7h7q15 0 25.5 9.5t11.5 24.5v90h-182v6l220 269h6v-242h29q17 0 23.5 3t12.5 11h7l-14 -47h-58zM578 163v160l-128 -160h128z" />
    <glyph glyph-name="questiondown" unicode="&#xbf;" horiz-adv-x="433" 
d="M233 704q19 0 32 -13t13 -32t-13 -32t-32 -13t-32 13t-13 32t13 32t32 13zM393 75q-48 -89 -154 -89q-54 0 -98 20q-91 42 -91 150q0 62 40 111q34 41 66 71q59 54 71 95q8 20 8 44.5t-18 47.5l6 5q45 -41 45 -96q0 -45 -51 -103q-21 -24 -42 -50q-50 -61 -50 -126
t32 -102t90.5 -37t92 40.5t33.5 107.5v6h10z" />
    <glyph glyph-name="Agrave" unicode="&#xc0;" 
d="M374 781l-7 -7q-81 38 -161 85q14 28 41 53q63 -61 127 -131zM118 734q65 27 125 27q50 0 103 -37q29 -20 65 -78q24 -40 61 -145l122 -346q42 -116 85.5 -184.5t79.5 -103t75 -48.5t64.5 -14t45.5 4l1 -10q-48 -16 -94 -16t-92 23.5t-86 65.5q-86 87 -146 265l-39 114
h-274l-69 -178q-5 -12 -5 -24t10.5 -25.5t32.5 -13.5h8v-10h-201v10h9q24 0 47 14.5t38 43.5l248 594q-54 76 -134 76q-36 0 -77 -14zM225 281h253l-79 233q-23 67 -42 105z" />
    <glyph glyph-name="Aacute" unicode="&#xc1;" 
d="M367 774l-7 7q76 82 127 131q26 -27 40 -53q-64 -37 -160 -85zM118 734q65 27 125 27q50 0 103 -37q29 -20 65 -78q24 -40 61 -145l122 -346q42 -116 85.5 -184.5t79.5 -103t75 -48.5t64.5 -14t45.5 4l1 -10q-48 -16 -94 -16t-92 23.5t-86 65.5q-86 87 -146 265l-39 114
h-274l-69 -178q-5 -12 -5 -24t10.5 -25.5t32.5 -13.5h8v-10h-201v10h9q24 0 47 14.5t38 43.5l248 594q-54 77 -134 77q-36 0 -77 -15zM225 281h253l-79 233q-23 67 -42 105z" />
    <glyph glyph-name="Acircumflex" unicode="&#xc2;" 
d="M361 900h10l115 -119l-6 -8l-114 66l-105 -66l-6 8zM118 734q63 26 123 26q23 0 47.5 -5t52.5 -27.5t45 -43.5t36 -59q24 -49 50 -124l122 -346q42 -116 85.5 -184.5t79.5 -103t75 -48.5t64.5 -14t45.5 4l1 -10q-48 -16 -94 -16t-92 23.5t-86 65.5q-86 87 -146 265
l-39 114h-274l-69 -178q-5 -12 -5 -24t10.5 -25.5t32.5 -13.5h8v-10h-201v10h9q24 0 47 14.5t38 43.5l248 594q-54 77 -134 77q-36 0 -77 -15zM225 281h253l-79 233q-23 67 -42 105z" />
    <glyph glyph-name="Atilde" unicode="&#xc3;" 
d="M437 819q41 0 55 34h10q-4 -37 -21 -58q-9 -10 -20 -15.5t-29 -5.5t-59.5 22t-56.5 22q-37 0 -54 -41h-10q6 39 23 62t41 23t64.5 -21.5t56.5 -21.5zM118 734q63 26 123 26q23 0 47.5 -5t52.5 -27.5t45 -43.5t36 -59q24 -49 50 -124l122 -346q42 -116 85.5 -184.5
t79.5 -103t75 -48.5t64.5 -14t45.5 4l1 -10q-48 -16 -94 -16t-92 23.5t-86 65.5q-86 87 -146 265l-39 114h-274l-69 -178q-5 -12 -5 -24t10.5 -25.5t32.5 -13.5h8v-10h-201v10h9q24 0 47 14.5t38 43.5l248 594q-54 77 -134 77q-36 0 -77 -15zM225 281h253l-79 233
q-23 67 -42 105z" />
    <glyph glyph-name="Adieresis" unicode="&#xc4;" 
d="M272.5 774q-16.5 0 -28 11.5t-11.5 27.5t11.5 27.5t28 11.5t28 -11.5t11.5 -27.5t-11.5 -27.5t-28 -11.5zM461 774q-16 0 -27.5 11.5t-11.5 27.5t11.5 27.5t27.5 11.5t27.5 -11.5t11.5 -27.5t-11.5 -27.5t-27.5 -11.5zM118 734q65 27 125 27q50 0 103 -37q29 -20 65 -78
q24 -40 61 -145l122 -346q42 -116 85.5 -184.5t79.5 -103t75 -48.5t64.5 -14t45.5 4l1 -10q-48 -16 -94 -16t-92 23.5t-86 65.5q-86 87 -146 265l-39 114h-274l-69 -178q-5 -12 -5 -24t10.5 -25.5t32.5 -13.5h8v-10h-201v10h9q24 0 47 14.5t38 43.5l248 594q-54 77 -134 77
q-36 0 -77 -15zM225 281h253l-79 233q-23 67 -42 105z" />
    <glyph glyph-name="Aring" unicode="&#xc5;" 
d="M300 903q27 21 67.5 21t67 -20t26.5 -48t-13 -45q-25 -37 -73 -37t-75 21.5t-27 54t27 53.5zM366.5 907q-21.5 0 -35 -15.5t-13.5 -42.5t13.5 -42t35 -15t35.5 15t14 42t-14 42.5t-35.5 15.5zM118 734q65 27 125 27q50 0 103 -37q29 -20 65 -78q24 -40 61 -145l122 -346
q42 -116 85.5 -184.5t79.5 -103t75 -48.5t64.5 -14t45.5 4l1 -10q-48 -16 -94 -16t-92 23.5t-86 65.5q-86 87 -146 265l-39 114h-274l-69 -178q-5 -12 -5 -24t10.5 -25.5t32.5 -13.5h8v-10h-201v10h9q24 0 47 14.5t38 43.5l248 594q-54 77 -134 77q-36 0 -77 -15zM225 281
h253l-79 233q-23 67 -42 105z" />
    <glyph glyph-name="AE" unicode="&#xc6;" horiz-adv-x="872" 
d="M-53 -76q-26 -12 -51.5 -16t-49 -4t-46.5 5l1 10q72 3 128 40.5t108 119.5l366 576q6 13 -0.5 24t-20.5 11h-4v10h153q31 0 68 6t51 12v-113h-10v15q0 20 -14 34.5t-34 14.5h-121v-319h194q20 1 34 15t14 35v14h10v-158h-10v15q0 20 -14 34t-33 15h-195v-289h234
q108 1 153 108h10l-56 -139h-466l1 10h9q20 0 34.5 14t15.5 34v262h-161l-155 -265q-53 -92 -143 -131zM406 350v247l-144 -247h144z" />
    <glyph glyph-name="Ccedilla" unicode="&#xc7;" horiz-adv-x="821" 
d="M474 -117q0 44 -51 44q-16 0 -33 -8l-5 10l44 57q-168 5 -276 108.5t-108 256.5q0 102 50 185t138 130.5t196 47.5q68 0 138.5 -18.5t117.5 -49.5l20 -141h-9q-21 84 -97 131.5t-169 47.5q-133 0 -221.5 -94.5t-88.5 -237.5t91.5 -239.5t239.5 -96.5t241.5 96t93.5 263
h10q1 -12 1 -42.5t-9 -79t-29 -91t-50 -75.5t-68 -54q-78 -44 -185 -47l-37 -43q43 15 77 -4q28 -16 28 -58.5t-44 -63.5q-25 -12 -50 -12t-47 7l1 10q36 0 63 15.5t27 45.5z" />
    <glyph glyph-name="Egrave" unicode="&#xc8;" horiz-adv-x="607" 
d="M255 771l-7 -7q-80 38 -161 85q15 28 41 53q64 -61 127 -131zM73 10q26 0 44.5 18.5t19.5 44.5v560q0 24 -19 40.5t-45 16.5h-12l-1 10h203q31 0 67.5 6t51.5 12v-126h-10v18q0 24 -16.5 41t-39.5 18h-114v-309h190q20 1 34 15t14 35v14h10v-158h-10v15q0 20 -13.5 34
t-33.5 15h-191v-299h213q74 0 113 33t65 98h10l-58 -162h-485v10h13z" />
    <glyph glyph-name="Eacute" unicode="&#xc9;" horiz-adv-x="607" 
d="M248 764l-7 7q76 82 127 131q27 -27 41 -53q-64 -37 -161 -85zM73 10q26 0 44.5 18.5t19.5 44.5v560q0 24 -19 40.5t-45 16.5h-12l-1 10h203q43 0 76.5 7t42.5 11v-126h-10v18q0 24 -16.5 41t-39.5 18h-114v-309h190q20 1 34 15t14 35v14h10v-158h-10v15q0 20 -13.5 34
t-33.5 15h-191v-299h213q74 0 113 33t65 98h10l-58 -162h-485v10h13z" />
    <glyph glyph-name="Ecircumflex" unicode="&#xca;" horiz-adv-x="607" 
d="M243 890h10l114 -119l-6 -8l-113 66l-105 -66l-6 8zM73 10q26 0 44.5 18.5t19.5 44.5v560q0 24 -19 40.5t-45 16.5h-12l-1 10h203q31 0 67.5 6t51.5 12v-126h-10v18q0 24 -16.5 41t-39.5 18h-114v-309h190q20 1 34 15t14 35v14h10v-158h-10v15q0 20 -13.5 34t-33.5 15
h-191v-299h213q51 0 86.5 18t55 44t36.5 69h10l-58 -162h-485v10h13z" />
    <glyph glyph-name="Edieresis" unicode="&#xcb;" horiz-adv-x="607" 
d="M154 764q-16 0 -27.5 11.5t-11.5 27.5t11.5 27.5t27.5 11.5t27.5 -11.5t11.5 -27.5t-11.5 -27.5t-27.5 -11.5zM342.5 764q-16.5 0 -28 11.5t-11.5 27.5t11.5 27.5t28 11.5t28 -11.5t11.5 -27.5t-11.5 -27.5t-28 -11.5zM73 10q26 0 44.5 18.5t19.5 44.5v560q0 24 -19 40.5
t-45 16.5h-12l-1 10h203q43 0 76.5 7t42.5 11v-126h-10v18q0 24 -16.5 41t-39.5 18h-114v-309h190q20 1 34 15t14 35v14h10v-158h-10v15q0 20 -13.5 34t-33.5 15h-191v-299h213q74 0 113 33t65 98h10l-58 -162h-485v10h13z" />
    <glyph glyph-name="Igrave" unicode="&#xcc;" horiz-adv-x="393" 
d="M231 771l-7 -7q-80 38 -160 85q14 28 40 53q64 -61 127 -131zM321 10h13v-10h-219v10h13q26 0 45 18.5t19 44.5v600l-107 -6q-101 -6 -101 -73q0 -27 17.5 -46.5t55.5 -20.5v-6q-14 -3 -28 -3q-44 0 -66 35q-13 20 -13 44q0 85 129 99q1 0 99.5 6.5t155.5 17.5l2 -10
q-43 -7 -61 -29t-18 -61v-547q1 -26 19.5 -44.5t44.5 -18.5z" />
    <glyph glyph-name="Iacute" unicode="&#xcd;" horiz-adv-x="393" 
d="M224 764l-7 7q76 82 127 131q27 -27 41 -53q-64 -37 -161 -85zM321 10h13v-10h-219v10h13q26 0 45 18.5t19 44.5v600l-107 -6q-101 -6 -101 -73q0 -27 17.5 -46t55.5 -21v-6q-15 -3 -35.5 -3t-46 20t-25.5 59q0 85 129 99q1 0 99.5 6.5t155.5 17.5l2 -10q-43 -7 -61 -29
t-18 -61v-547q1 -26 19.5 -44.5t44.5 -18.5z" />
    <glyph glyph-name="Icircumflex" unicode="&#xce;" horiz-adv-x="393" 
d="M219 890h10l114 -119l-6 -8l-113 66l-105 -66l-6 8zM321 10h13v-10h-219v10h13q26 0 45 18.5t19 44.5v600l-107 -6q-101 -6 -101 -73q0 -27 17.5 -46t55.5 -21v-6q-15 -3 -35.5 -3t-46 20t-25.5 59q0 85 129 99q1 0 99.5 6.5t155.5 17.5l2 -10q-43 -7 -61 -29t-18 -61
v-547q1 -26 19.5 -44.5t44.5 -18.5z" />
    <glyph glyph-name="Idieresis" unicode="&#xcf;" horiz-adv-x="393" 
d="M130 764q-16 0 -27.5 11.5t-11.5 27.5t11.5 27.5t27.5 11.5t27.5 -11.5t11.5 -27.5t-11.5 -27.5t-27.5 -11.5zM318.5 764q-16.5 0 -28 11.5t-11.5 27.5t11.5 27.5t28 11.5t28 -11.5t11.5 -27.5t-11.5 -27.5t-28 -11.5zM321 10h13v-10h-219v10h13q26 0 45 18.5t19 44.5
v600l-107 -6q-101 -6 -101 -73q0 -27 17.5 -46t55.5 -21v-6q-14 -3 -28 -3q-44 0 -66 35q-13 20 -13 44q0 85 129 99q1 0 99.5 6.5t155.5 17.5l2 -10q-43 -7 -61 -29t-18 -61v-547q1 -26 19.5 -44.5t44.5 -18.5z" />
    <glyph glyph-name="Eth" unicode="&#xd0;" horiz-adv-x="817" 
d="M-121 554q28 84 95.5 116.5t241.5 32.5q40 0 183 -3q106 -3 187 -46t126.5 -121.5t45.5 -182.5q0 -157 -99.5 -253.5t-259.5 -96.5h-339l1 10h12q25 0 43 16.5t21 40.5v268h-77v30h77v304q-125 -5 -177 -40q-27 -18 -41 -35t-29 -44zM202 335v-305h197q84 0 148.5 39.5
t100 112.5t35.5 168q0 144 -78 232t-206 88h-197v-305h168v-30h-168z" />
    <glyph glyph-name="Ntilde" unicode="&#xd1;" horiz-adv-x="841" 
d="M496 809q42 0 56 34h10q-6 -50 -35 -70q-14 -9 -34 -9t-61.5 22t-55.5 22q-38 0 -55 -41h-10q6 39 23 62t41.5 23t64.5 -21.5t56 -21.5zM1054 -152q-48 -15 -83.5 -15t-64 7.5t-56.5 20t-56 34.5q-47 38 -96 91l-527 584v-500q0 -25 18 -42.5t43 -17.5h19v-10h-206v10h19
q25 0 43 17.5t18 43.5v549q-5 7 -20 26.5t-25 31.5t-27 31.5t-31.5 31.5t-33.5 28q-30 23 -64 33t-57.5 10t-50.5 -8l-4 10q49 20 96 20q85 0 167 -66q37 -31 92 -92l504 -560v513q-1 26 -19 43.5t-43 17.5h-19v10h206v-10h-18q-25 0 -43 -17.5t-19 -42.5v-565
q10 -11 28.5 -33t26 -31t22.5 -26t25.5 -26.5t26 -24t29 -23t30.5 -19.5q24 -14 54.5 -21t50 -7t41.5 4z" />
    <glyph glyph-name="Ograve" unicode="&#xd2;" horiz-adv-x="929" 
d="M476 771l-7 -7q-80 38 -161 85q15 28 41 53q64 -61 127 -131zM277 467q-4 13 -4 22.5t1 21.5t4.5 33t13.5 41.5t23 39t33.5 35t45.5 28.5q53 26 142 26t168.5 -47t122 -127.5t42.5 -184.5t-52 -189.5t-144 -132.5t-206.5 -47t-207 46.5t-146 132t-53.5 194t50 191.5
t143 130l6 -9q-65 -43 -93.5 -124t-28.5 -169t25 -156.5t70 -113.5q91 -92 234 -92t234.5 95.5t91.5 251.5q0 131 -69 223q-33 45 -87 71.5t-117 26.5t-111 -21q-87 -37 -115 -122q-8 -25 -8 -43t2 -29z" />
    <glyph glyph-name="Oacute" unicode="&#xd3;" horiz-adv-x="929" 
d="M469 764l-7 7q76 82 127 131q27 -27 41 -53q-65 -37 -161 -85zM277 467q-4 13 -4 22.5t1 21.5t4.5 33t13.5 41.5t23 39.5t33.5 35t45.5 28q53 26 142 26t168.5 -47t122 -127.5t42.5 -184.5t-52 -189.5t-144 -132.5t-206.5 -47t-207 46.5t-146 132t-53.5 194t50 191.5
t143 130l6 -9q-65 -43 -93.5 -124t-28.5 -169t25 -156.5t70 -113.5q91 -92 234 -92t234.5 95.5t91.5 251.5q0 131 -69 223q-33 45 -87 71.5t-117 26.5t-111 -21q-87 -37 -115 -122q-8 -25 -8 -43t2 -29z" />
    <glyph glyph-name="Ocircumflex" unicode="&#xd4;" horiz-adv-x="929" 
d="M464 890h10l114 -119l-6 -8l-114 66l-104 -66l-6 8zM277 467q-4 13 -4 22.5t1 21.5t4.5 33t13.5 41.5t23 39.5t33.5 35t45.5 28q53 26 142 26t168.5 -47t122 -127.5t42.5 -184.5t-52 -189.5t-144 -132.5t-207 -47q-86 0 -160.5 27t-129 75.5t-85.5 119t-31 165t50 177.5
t143 130l6 -9q-65 -43 -93.5 -124t-28.5 -169t25 -156.5t70 -113.5q91 -92 232 -92q95 0 169.5 43t116.5 122t42 182q0 131 -69 223q-33 45 -87 71.5t-117 26.5t-111 -21q-87 -37 -115 -122q-8 -25 -8 -43t2 -29z" />
    <glyph glyph-name="Otilde" unicode="&#xd5;" horiz-adv-x="929" 
d="M539 809q42 0 56 34h10q-6 -50 -35 -70q-13 -9 -33.5 -9t-61.5 22t-56 22q-38 0 -54 -41h-10q5 39 22.5 62t41.5 23t64 -21.5t56 -21.5zM277 467q-4 13 -4 22.5t1 21.5t4.5 33t13.5 41.5t23 39.5t33.5 35t45.5 28q53 26 142 26t168.5 -47t122 -127.5t42.5 -184.5
t-52 -189.5t-144 -132.5t-206.5 -47t-207 46.5t-146 132t-53.5 194t50 191.5t143 130l6 -9q-44 -29 -73 -82q-49 -89 -49 -214q0 -85 25 -153.5t70 -113.5q91 -92 232 -92q95 0 169.5 43t116.5 122t42 182q0 131 -69 223q-33 45 -87 71.5t-117 26.5t-111 -21
q-87 -37 -115 -122q-8 -25 -8 -43t2 -29z" />
    <glyph glyph-name="Odieresis" unicode="&#xd6;" horiz-adv-x="929" 
d="M375 764q-16 0 -27.5 11.5t-11.5 27.5t11.5 27.5t27.5 11.5t27.5 -11.5t11.5 -27.5t-11.5 -27.5t-27.5 -11.5zM563 764q-16 0 -27.5 11.5t-11.5 27.5t11.5 27.5t27.5 11.5t27.5 -11.5t11.5 -27.5t-11.5 -27.5t-27.5 -11.5zM277 467q-4 13 -4 22.5t1 21.5t4.5 33
t13.5 41.5t23 39.5t33.5 35t45.5 28q53 26 142 26t168.5 -47t122 -127.5t42.5 -184.5t-52 -189.5t-144 -132.5t-206.5 -47t-207 46.5t-146 132t-53.5 194t50 191.5t143 130l6 -9q-65 -43 -93.5 -124t-28.5 -169t25 -156.5t70 -113.5q91 -92 234 -92t234.5 95.5t91.5 251.5
q0 131 -69 223q-33 45 -87 71.5t-117 26.5t-111 -21q-87 -37 -115 -122q-8 -25 -8 -43t2 -29z" />
    <glyph glyph-name="multiply" unicode="&#xd7;" horiz-adv-x="415" 
d="M366 436l-126 -126l126 -126l-32 -32l-126 126l-126 -126l-32 32l126 126l-126 126l32 32l126 -126l126 126z" />
    <glyph glyph-name="Oslash" unicode="&#xd8;" horiz-adv-x="929" 
d="M738 644q131 -102 131 -294q0 -98 -53.5 -184t-146.5 -133t-213.5 -47t-217.5 57l-55 -66l-25 22l51 62q-70 50 -109.5 127t-39.5 178t50 184t143 130l6 -9q-65 -43 -93.5 -124t-28.5 -172q0 -180 103 -277l442 531q-69 55 -167 55q-59 0 -107 -21q-87 -37 -115 -122
q-8 -25 -8 -43t2 -29l-10 -2q-4 13 -4 22.5t1 21.5t4.5 33t13.5 41.5t23 39.5t33.5 35t45.5 28q53 26 129 26q105 0 187 -51l49 59l26 -22zM459 16q146 0 239.5 96t93.5 251q0 97 -38 174q-19 39 -48 69l-441 -530q81 -60 194 -60z" />
    <glyph glyph-name="Ugrave" unicode="&#xd9;" horiz-adv-x="783" 
d="M429 771l-7 -7q-81 38 -161 85q14 28 41 53q63 -61 127 -131zM887 872h17v-10q-110 0 -174 -72.5t-64 -209.5v-333q0 -117 -74 -189t-197 -72t-199.5 71.5t-76.5 188.5v394q0 22 -15.5 36t-37.5 14h-16v10h203v-10h-16q-22 0 -37 -13.5t-16 -34.5v-382q0 -109 58.5 -176
t153.5 -67q101 0 162 63.5t61 166.5v332q0 147 74.5 220t193.5 73z" />
    <glyph glyph-name="Uacute" unicode="&#xda;" horiz-adv-x="783" 
d="M422 764l-7 7q76 82 127 131q26 -27 40 -53q-64 -37 -160 -85zM887 872h17v-10q-110 0 -174 -72.5t-64 -209.5v-333q0 -117 -74 -189t-197 -72t-199.5 71.5t-76.5 188.5v395q0 21 -15.5 35t-37.5 14h-16v10h203v-10h-16q-30 0 -45 -23q-7 -11 -8 -25v-382
q0 -109 58.5 -175.5t156.5 -66.5t159 63t61 166v332q0 147 74.5 220t193.5 73z" />
    <glyph glyph-name="Ucircumflex" unicode="&#xdb;" horiz-adv-x="783" 
d="M416 890h10l115 -119l-6 -8l-114 66l-105 -66l-6 8zM887 872h17v-10q-110 0 -174 -72.5t-64 -209.5v-333q0 -117 -74 -189t-197 -72t-199.5 71.5t-76.5 188.5v395q0 29 -26 43q-12 6 -27 6h-16v10h203v-10h-16q-22 0 -37 -13.5t-16 -34.5v-382q0 -109 58.5 -175.5
t156.5 -66.5t159 63t61 166v332q0 147 74.5 220t193.5 73z" />
    <glyph glyph-name="Udieresis" unicode="&#xdc;" horiz-adv-x="783" 
d="M887 872h17v-10q-110 0 -174 -72.5t-64 -209.5v-333q0 -117 -74 -189t-197 -72t-199.5 71.5t-76.5 188.5v395q0 29 -26 43q-12 6 -27 6h-16v10h203v-10h-16q-22 0 -37 -13.5t-16 -34.5v-382q0 -109 58.5 -175.5t153.5 -66.5q101 0 162 63t61 166v332q0 147 74.5 220
t193.5 73zM327.5 764q-16.5 0 -28 11.5t-11.5 27.5t11.5 27.5t28 11.5t28 -11.5t11.5 -27.5t-11.5 -27.5t-28 -11.5zM516 764q-16 0 -27.5 11.5t-11.5 27.5t11.5 27.5t27.5 11.5t27.5 -11.5t11.5 -27.5t-11.5 -27.5t-27.5 -11.5z" />
    <glyph glyph-name="Yacute" unicode="&#xdd;" horiz-adv-x="618" 
d="M331 764l-7 7q76 82 127 131q27 -27 41 -53q-64 -37 -161 -85zM-40 757h25t49 -6t57.5 -17.5t52 -33t43.5 -40t36.5 -48.5t30 -51t25.5 -55q18 -43 29.5 -75.5t12.5 -36.5q4 -10 7 -18q3 7 12 31.5t16.5 43.5t22 54t25.5 55t28.5 50.5t33.5 48.5t38.5 39t44.5 32
q54 27 110 27v-10q-56 0 -114.5 -59t-100 -142.5t-68 -173t-26.5 -152.5v-147q0 -25 18.5 -44t45.5 -19h12v-10h-218v10h13q25 0 44 18t20 44v149q0 67 -28 157t-72 172.5t-105 139.5t-120 57v10z" />
    <glyph glyph-name="Thorn" unicode="&#xde;" horiz-adv-x="554" 
d="M505 354.5q0 -44.5 -18 -81.5q-32 -71 -113 -99q-29 -10 -49 -10q-62 0 -106 23v10q72 -16 135 16q54 27 74 92q7 20 7 37.5v22.5q-2 70 -37 111.5t-98 41.5h-115v-445q0 -37 32 -55q14 -8 32 -8h12v-10h-218v10h12q27 0 45.5 18.5t19.5 44.5v555q-1 26 -19.5 44
t-44.5 18h-13v10h218v-10h-12q-26 0 -45 -18t-19 -44v-80h119q147 0 188 -113q13 -36 13 -80.5z" />
    <glyph glyph-name="germandbls" unicode="&#xdf;" horiz-adv-x="952" 
d="M61 41q-3 14 -3 54t15 85h9q-1 -11 -1 -22q0 -61 37 -101.5t98 -40.5q63 0 103.5 38t40.5 95.5t-39 93.5l-192 178q-54 50 -54 121t47.5 121.5t128.5 50.5q38 0 86 -10h39v-123h-9q0 47 -32.5 75t-83.5 28t-85.5 -34t-34.5 -85t40 -88l197 -182q50 -46 50 -126
t-51 -131.5t-136 -51.5q-44 0 -93.5 13.5t-76.5 41.5zM537 41q-3 14 -3 54t15 85h9q-1 -11 -1 -22q0 -61 37 -101.5t98 -40.5q63 0 103.5 38t40.5 95.5t-39 93.5l-192 178q-54 50 -54 121t47.5 121.5t128.5 50.5q38 0 85 -10h40v-123h-10q1 47 -31.5 75t-74.5 28t-70 -16
q-59 -33 -59 -93.5t40 -97.5l197 -182q50 -46 50 -126t-51 -131.5t-136 -51.5q-45 0 -94 13.5t-76 41.5z" />
    <glyph glyph-name="agrave" unicode="&#xe0;" 
d="M363 771l-7 -7q-81 38 -161 85q15 28 41 53q63 -61 127 -131zM715 10h8v-10h-225v10h9q21 0 31.5 13.5t10.5 25.5t-4 24l-64 170h-270l-67 -171q-4 -12 -4 -20t3.5 -17.5t14.5 -17t24 -7.5h9v-10h-201v10h9q25 0 49 16t39 47l226 538q37 81 37 103h9l268 -641
q19 -42 56 -57q16 -6 32 -6zM223 273h246l-120 321z" />
    <glyph glyph-name="aacute" unicode="&#xe1;" 
d="M356 764l-7 7q76 82 127 131q27 -27 41 -53q-65 -37 -161 -85zM715 10h8v-10h-225v10h9q21 0 31.5 13.5t10.5 25.5t-4 24l-64 170h-270l-67 -171q-4 -12 -4 -23.5t10.5 -25t31.5 -13.5h9v-10h-201v10h9q25 0 49 16t39 47l226 538q37 81 37 103h9l268 -641q14 -31 38 -47
t50 -16zM223 273h246l-120 321z" />
    <glyph glyph-name="acircumflex" unicode="&#xe2;" 
d="M351 890h10l114 -119l-6 -8l-114 66l-104 -66l-6 8zM715 10h8v-10h-225v10h9q21 0 31.5 13.5t10.5 25.5t-4 24l-64 170h-270l-67 -171q-4 -12 -4 -23.5t10.5 -25t31.5 -13.5h9v-10h-201v10h9q25 0 49 16t39 47l226 538q37 81 37 103h9l268 -641q14 -31 38 -47t50 -16z
M223 273h246l-120 321z" />
    <glyph glyph-name="atilde" unicode="&#xe3;" 
d="M426 809q42 0 56 34h10q-6 -50 -35 -70q-14 -9 -34 -9t-61.5 22t-55.5 22q-38 0 -54 -41h-10q5 39 22 62t41.5 23t64.5 -21.5t56 -21.5zM715 10h8v-10h-225v10h9q21 0 31.5 13.5t10.5 25.5t-4 24l-64 170h-270l-67 -171q-4 -12 -4 -23.5t10.5 -25t31.5 -13.5h9v-10h-201
v10h9q25 0 49 16t39 47l226 538q37 81 37 103h9l268 -641q14 -31 38 -47t50 -16zM223 273h246l-120 321z" />
    <glyph glyph-name="adieresis" unicode="&#xe4;" 
d="M262 764q-16 0 -27.5 11.5t-11.5 27.5t11.5 27.5t27.5 11.5t27.5 -11.5t11.5 -27.5t-11.5 -27.5t-27.5 -11.5zM450 764q-16 0 -27.5 11.5t-11.5 27.5t11.5 27.5t27.5 11.5t27.5 -11.5t11.5 -27.5t-11.5 -27.5t-27.5 -11.5zM715 10h8v-10h-225v10h9q21 0 31.5 13.5
t10.5 25.5t-4 24l-64 170h-270l-67 -171q-14 -42 20 -58q9 -4 18 -4h9v-10h-201v10h9q25 0 49 16t39 47l226 538q37 81 37 103h9l268 -641q14 -31 38 -47t50 -16zM223 273h246l-120 321z" />
    <glyph glyph-name="aring" unicode="&#xe5;" 
d="M308.5 904.5q21.5 9.5 55 9.5t60 -20t26.5 -55q0 -44 -46 -65q-21 -10 -54.5 -10t-60.5 21.5t-27 48.5t12.5 44t34 26.5zM356.5 897q-21.5 0 -35.5 -15.5t-14 -42.5t14 -42t35.5 -15t35 15t13.5 42t-13.5 42.5t-35 15.5zM715 10h8v-10h-225v10h9q21 0 31.5 13.5
t10.5 25.5t-4 24l-64 170h-270l-67 -171q-4 -12 -4 -23.5t10.5 -25t31.5 -13.5h9v-10h-201v10h9q25 0 49 16t39 47l226 538q37 81 37 103h9l268 -641q14 -31 38 -47t50 -16zM223 273h246l-120 321z" />
    <glyph glyph-name="ae" unicode="&#xe6;" horiz-adv-x="901" 
d="M416 10q20 0 34.5 14t15.5 34v262h-164l-150 -253q-7 -13 -7 -22.5t3 -17.5q8 -17 28 -17h3h10v-10h-199v10h7q24 0 50.5 18.5t41.5 42.5l374 584q6 13 -0.5 24t-20.5 11h-4v10h243q31 0 68 6t51 12v-113h-10v15q0 20 -14 34.5t-34 14.5h-211v-319h169q20 1 34 15t14 35
v14h10v-158h-10v15q0 20 -14 34t-33 15h-170v-289h164q108 1 153 108h10l-56 -139h-396l1 10h9zM466 350v248l-147 -248h147z" />
    <glyph glyph-name="ccedilla" unicode="&#xe7;" horiz-adv-x="760" 
d="M394 -61q31 11 56 4q49 -13 49 -61t-44 -69q-25 -12 -49.5 -12t-47.5 7l1 10q36 0 63 15t27 46q0 44 -51 44q-16 0 -33 -8l-5 10l47 61q-154 5 -250.5 104.5t-96.5 261.5t99.5 262t263.5 100q134 0 237 -68l20 -141h-9q-22 86 -89 132.5t-159 46.5q-131 0 -209.5 -91
t-78.5 -241t77.5 -241.5t204.5 -94.5q112 0 187 61q81 66 98 215h8l-12 -157q-54 -89 -149 -126q-52 -21 -114 -23z" />
    <glyph glyph-name="egrave" unicode="&#xe8;" horiz-adv-x="577" 
d="M304 771l-7 -7q-80 38 -161 85q15 28 41 53q63 -61 127 -131zM73 10q26 0 44.5 18.5t19.5 44.5v560q0 24 -19 40.5t-45 16.5h-12l-1 10h293q43 0 76.5 7t42.5 11v-126h-10v18q0 24 -16.5 41t-39.5 18h-204v-309h169q20 1 34 15t14 35v14h10v-158h-10v15q0 31 -29 45
q-8 4 -18 4h-170v-299h143q74 0 113 33t65 98l10 -1l-58 -161h-415v10h13z" />
    <glyph glyph-name="eacute" unicode="&#xe9;" horiz-adv-x="577" 
d="M297 764l-7 7q76 82 127 131q27 -27 41 -53q-65 -37 -161 -85zM73 10q26 0 44.5 18.5t19.5 44.5v560q0 24 -19 40.5t-45 16.5h-12l-1 10h293q43 0 76.5 7t42.5 11v-126h-10v18q0 24 -16.5 41t-39.5 18h-204v-309h169q20 1 34 15t14 35v14h10v-158h-10v15q0 20 -13.5 34
t-33.5 15h-170v-299h143q74 0 113 33t65 98h10l-58 -162h-415v10h13z" />
    <glyph glyph-name="ecircumflex" unicode="&#xea;" horiz-adv-x="577" 
d="M292 890h10l114 -119l-6 -8l-114 66l-104 -66l-6 8zM73 10q26 0 44.5 18.5t19.5 44.5v560q0 24 -19 40.5t-45 16.5h-12l-1 10h293q43 0 76.5 7t42.5 11v-126h-10v18q0 24 -16.5 41t-39.5 18h-204v-309h169q20 1 34 15t14 35v14h10v-158h-10v15q0 20 -13.5 34t-33.5 15
h-170v-299h143q74 0 113 33t65 98h10l-58 -162h-415v10h13z" />
    <glyph glyph-name="edieresis" unicode="&#xeb;" horiz-adv-x="577" 
d="M203 764q-16 0 -27.5 11.5t-11.5 27.5t11.5 27.5t27.5 11.5t27.5 -11.5t11.5 -27.5t-11.5 -27.5t-27.5 -11.5zM391 764q-16 0 -27.5 11.5t-11.5 27.5t11.5 27.5t27.5 11.5t27.5 -11.5t11.5 -27.5t-11.5 -27.5t-27.5 -11.5zM73 10q26 0 44.5 18.5t19.5 44.5v560
q0 24 -19 40.5t-45 16.5h-12l-1 10h293q43 0 76.5 7t42.5 11v-126h-10v18q0 24 -16.5 41t-39.5 18h-204v-309h169q20 1 34 15t14 35v14h10v-158h-10v15q0 31 -29 45q-8 4 -18 4h-170v-299h143q74 0 113 33t65 98h10l-58 -162h-415v10h13z" />
    <glyph glyph-name="igrave" unicode="&#xec;" horiz-adv-x="338" 
d="M177 771l-7 -7q-81 38 -161 85q14 28 41 53q63 -61 127 -131zM73 10q26 0 44.5 18.5t19.5 44.5v555q-1 26 -19.5 44t-44.5 18h-13v10h219v-10h-13q-26 0 -44.5 -18t-19.5 -44v-555q0 -26 19 -44.5t45 -18.5h13v-10h-219v10h13z" />
    <glyph glyph-name="iacute" unicode="&#xed;" horiz-adv-x="338" 
d="M170 764l-7 7q76 82 126 131q27 -27 41 -53q-64 -37 -160 -85zM73 10q26 0 44.5 18.5t19.5 44.5v555q-1 26 -19.5 44t-44.5 18h-13v10h219v-10h-13q-26 0 -44.5 -18t-19.5 -44v-555q0 -26 19 -44.5t45 -18.5h13v-10h-219v10h13z" />
    <glyph glyph-name="icircumflex" unicode="&#xee;" horiz-adv-x="338" 
d="M164 890h10l115 -119l-6 -8l-114 66l-105 -66l-6 8zM73 10q26 0 44.5 18.5t19.5 44.5v555q-1 26 -19.5 44t-44.5 18h-13v10h219v-10h-13q-26 0 -44.5 -18t-19.5 -44v-555q0 -26 19 -44.5t45 -18.5h13v-10h-219v10h13z" />
    <glyph glyph-name="idieresis" unicode="&#xef;" horiz-adv-x="338" 
d="M75.5 764q-16.5 0 -28 11.5t-11.5 27.5t11.5 27.5t28 11.5t27.5 -11.5t11 -27.5t-11 -27.5t-27.5 -11.5zM264 764q-16 0 -27.5 11.5t-11.5 27.5t11.5 27.5t27.5 11.5t27.5 -11.5t11.5 -27.5t-11.5 -27.5t-27.5 -11.5zM73 10q26 0 44.5 18.5t19.5 44.5v555q-1 26 -19.5 44
t-44.5 18h-13v10h219v-10h-13q-26 0 -44.5 -18t-19.5 -44v-555q0 -26 19 -44.5t45 -18.5h13v-10h-219v10h13z" />
    <glyph glyph-name="eth" unicode="&#xf0;" horiz-adv-x="817" 
d="M660.5 603.5q97.5 -96.5 97.5 -254t-97.5 -253.5t-257.5 -96h-338v10h13q26 0 44.5 18.5t19.5 44.5v262h-82v30h82v268q0 24 -19.5 40.5t-44.5 16.5h-13v10h338q160 0 257.5 -96.5zM207 335v-305h196q128 0 206.5 88t78.5 232t-78.5 232t-206.5 88h-196v-305h163v-30
h-163z" />
    <glyph glyph-name="ntilde" unicode="&#xf1;" horiz-adv-x="841" 
d="M496 809q42 0 56 34h10q-6 -50 -35 -70q-14 -9 -34 -9t-61.5 22t-55.5 22q-38 0 -55 -41h-10q6 39 23 62t41.5 23t64.5 -21.5t56 -21.5zM778 690q-25 0 -43 -17.5t-19 -42.5v-516q0 -58 7 -110l2 -18h-9l-545 582v-498q0 -25 18 -42.5t43 -17.5h19v-10h-206v10h19
q25 0 43 17.5t18 43.5v519q0 61 -7 109l-2 16h10l545 -582v496q-1 26 -19 43.5t-43 17.5h-19v10h206v-10h-18z" />
    <glyph glyph-name="ograve" unicode="&#xf2;" horiz-adv-x="848" 
d="M432 771l-7 -7q-80 38 -160 85q14 28 40 53q64 -61 127 -131zM424.5 714q170.5 0 277.5 -100.5t107 -263.5t-107 -263.5t-277.5 -100.5t-277.5 100.5t-107 263.5t107 263.5t277.5 100.5zM424 16q138 0 222.5 92t84.5 242t-84.5 242t-222.5 92t-222.5 -92t-84.5 -242
t84.5 -242t222.5 -92z" />
    <glyph glyph-name="oacute" unicode="&#xf3;" horiz-adv-x="848" 
d="M425 764l-7 7q77 82 127 131q27 -27 41 -53q-64 -37 -161 -85zM424.5 714q170.5 0 277.5 -100.5t107 -263.5q0 -108 -48.5 -191t-136 -128t-200.5 -45q-170 0 -277 100.5t-107 263.5t107 263.5t277.5 100.5zM424 16q138 0 222.5 92t84.5 242t-84.5 242t-222.5 92
t-222.5 -92t-84.5 -242t84.5 -242t222.5 -92z" />
    <glyph glyph-name="ocircumflex" unicode="&#xf4;" horiz-adv-x="848" 
d="M420 890h10l114 -119l-6 -8l-113 66l-105 -66l-6 8zM424.5 714q170.5 0 277.5 -100.5t107 -263.5t-107 -263.5t-277.5 -100.5t-277.5 100.5t-107 263.5t107 263.5t277.5 100.5zM424 16q138 0 222.5 92t84.5 242t-84.5 242t-222.5 92t-222.5 -92t-84.5 -242t84.5 -242
t222.5 -92z" />
    <glyph glyph-name="otilde" unicode="&#xf5;" horiz-adv-x="848" 
d="M496 809q41 0 55 34h10q-6 -50 -34 -70q-14 -9 -34 -9t-61.5 22t-56.5 22q-38 0 -54 -41h-10q6 39 23 62t41 23t64.5 -21.5t56.5 -21.5zM424.5 714q170.5 0 277.5 -100.5t107 -263.5t-107 -263.5t-277.5 -100.5t-277.5 100.5t-107 263.5t107 263.5t277.5 100.5zM424 16
q138 0 222.5 92t84.5 242t-84.5 242t-222.5 92t-222.5 -92t-84.5 -242t84.5 -242t222.5 -92z" />
    <glyph glyph-name="odieresis" unicode="&#xf6;" horiz-adv-x="848" 
d="M331 764q-16 0 -27.5 11.5t-11.5 27.5t11.5 27.5t27.5 11.5t27.5 -11.5t11.5 -27.5t-11.5 -27.5t-27.5 -11.5zM519.5 764q-16.5 0 -27.5 11.5t-11 27.5t11 27.5t27.5 11.5t28 -11.5t11.5 -27.5t-11.5 -27.5t-28 -11.5zM424.5 714q170.5 0 277.5 -100.5t107 -263.5
q0 -108 -48.5 -191t-136 -128t-200.5 -45q-170 0 -277 100.5t-107 263.5t107 263.5t277.5 100.5zM424 16q138 0 222.5 92t84.5 242t-84.5 242t-222.5 92t-222.5 -92t-84.5 -242t84.5 -242t222.5 -92z" />
    <glyph glyph-name="divide" unicode="&#xf7;" horiz-adv-x="481" 
d="M240.5 433q-14.5 0 -25 10.5t-10.5 25t10.5 24.5t25 10t25 -10t10.5 -24.5t-10.5 -25t-25 -10.5zM40 287v45h402v-45h-402zM240.5 117q-14.5 0 -25 10.5t-10.5 25t10.5 24.5t25 10t25 -10t10.5 -24.5t-10.5 -25t-25 -10.5z" />
    <glyph glyph-name="oslash" unicode="&#xf8;" horiz-adv-x="848" 
d="M673 638q136 -102 136 -296q0 -100 -48.5 -183t-136 -128t-200.5 -45q-138 0 -237 68l-64 -77l-25 22l62 75q-57 49 -88.5 119.5t-31.5 156.5q0 163 107 263.5t277 100.5q127 0 221 -57l54 65l26 -22zM424 684q-138 0 -222.5 -92t-84.5 -238.5t78 -237.5l421 505
q-79 63 -192 63zM218 91q82 -75 213 -75t215.5 92t84.5 245t-90 246z" />
    <glyph glyph-name="ugrave" unicode="&#xf9;" horiz-adv-x="785" 
d="M409 771l-7 -7q-81 38 -161 85q14 28 41 53q63 -61 127 -131zM735 690h-16q-21 0 -36.5 -13.5t-16.5 -33.5v-396q0 -117 -74 -189t-197 -72t-199.5 71.5t-76.5 188.5v394q0 30 -26 44q-12 6 -27 6h-16v10h203v-10h-16q-22 0 -37 -13.5t-16 -34.5v-382q0 -109 58.5 -176
t156.5 -67t159 63.5t61 166.5v395q-1 21 -16 34.5t-37 13.5h-16v10h185v-10z" />
    <glyph glyph-name="uacute" unicode="&#xfa;" horiz-adv-x="785" 
d="M402 764l-7 7q76 82 127 131q26 -27 40 -53q-64 -37 -160 -85zM735 690h-16q-21 0 -36.5 -13.5t-16.5 -33.5v-396q0 -117 -74 -189t-197 -72t-199.5 71.5t-76.5 188.5v395q0 21 -15.5 35t-37.5 14h-16v10h203v-10h-16q-30 0 -45 -23q-7 -11 -8 -25v-382q0 -109 58.5 -176
t153.5 -67q101 0 162 63.5t61 166.5v395q-1 33 -32 44q-10 4 -21 4h-16v10h185v-10z" />
    <glyph glyph-name="ucircumflex" unicode="&#xfb;" horiz-adv-x="785" 
d="M396 890h10l115 -119l-6 -8l-114 66l-105 -66l-6 8zM735 690h-16q-21 0 -36.5 -13.5t-16.5 -33.5v-396q0 -117 -74 -189t-197 -72t-199.5 71.5t-76.5 188.5v394q0 22 -15.5 36t-37.5 14h-16v10h203v-10h-16q-22 0 -37 -13.5t-16 -34.5v-382q0 -109 58.5 -176t156.5 -67
t159 63.5t61 166.5v395q-1 33 -32 44q-10 4 -21 4h-16v10h185v-10z" />
    <glyph glyph-name="udieresis" unicode="&#xfc;" horiz-adv-x="785" 
d="M307.5 764q-16.5 0 -28 11.5t-11.5 27.5t11.5 27.5t28 11.5t28 -11.5t11.5 -27.5t-11.5 -27.5t-28 -11.5zM496 764q-16 0 -27.5 11.5t-11.5 27.5t11.5 27.5t27.5 11.5t27.5 -11.5t11.5 -27.5t-11.5 -27.5t-27.5 -11.5zM735 690h-16q-21 0 -36.5 -13.5t-16.5 -33.5v-396
q0 -117 -74 -189t-197 -72t-199.5 71.5t-76.5 188.5v394q0 30 -26 44q-12 6 -27 6h-16v10h203v-10h-16q-30 0 -45 -23q-7 -11 -8 -25v-382q0 -109 58.5 -176t153.5 -67q101 0 162 63.5t61 166.5v395q-1 33 -32 44q-10 4 -21 4h-16v10h185v-10z" />
    <glyph glyph-name="yacute" unicode="&#xfd;" horiz-adv-x="661" 
d="M343 764l-7 7q77 82 127 131q27 -27 41 -53q-64 -37 -161 -85zM672 690h-14q-30 0 -56.5 -16.5t-44.5 -41.5l-197 -320v-239q0 -26 18.5 -44.5t45.5 -18.5h12v-10h-218v10h13q26 0 44.5 18t19.5 44v241l-191 319q-15 24 -42.5 41t-57.5 17h-14v10h246v-10h-13
q-22 0 -34 -20q-6 -11 -6 -21.5t5 -20.5l150 -280l160 281q5 10 5 20t-7 21q-12 20 -34 20h-12v10h222v-10z" />
    <glyph glyph-name="thorn" unicode="&#xfe;" horiz-adv-x="554" 
d="M505 354.5q0 -44.5 -18 -81.5q-32 -71 -113 -99q-29 -10 -49 -10q-62 0 -106 23v10q72 -16 135 16q54 27 74 92q7 20 7 37.5v22.5q-2 70 -37 111.5t-98 41.5h-115v-445q0 -37 32 -55q14 -8 32 -8h12v-10h-218v10h12q27 0 45.5 18.5t19.5 44.5v555q-1 26 -19.5 44
t-44.5 18h-13v10h218v-10h-12q-26 0 -45 -18t-19 -44v-80h119q147 0 188 -113q13 -36 13 -80.5z" />
    <glyph glyph-name="ydieresis" unicode="&#xff;" horiz-adv-x="661" 
d="M249 764q-16 0 -27.5 11.5t-11.5 27.5t11.5 27.5t27.5 11.5t27.5 -11.5t11.5 -27.5t-11.5 -27.5t-27.5 -11.5zM437.5 764q-16.5 0 -27.5 11.5t-11 27.5t11 27.5t27.5 11.5t28 -11.5t11.5 -27.5t-11.5 -27.5t-28 -11.5zM672 690h-14q-30 0 -56.5 -16.5t-44.5 -41.5
l-197 -320v-239q0 -26 18.5 -44.5t45.5 -18.5h12v-10h-218v10h13q26 0 44.5 18t19.5 44v241l-191 319q-15 24 -42.5 41t-57.5 17h-14v10h246v-10h-13q-22 0 -34 -20q-6 -11 -6 -21.5t5 -20.5l150 -280l160 281q5 10 5 20t-7 21q-12 20 -34 20h-12v10h222v-10z" />
    <glyph glyph-name="Amacron" unicode="&#x100;" 
d="M244 805v35h250v-35h-250zM118 734q65 27 125 27q50 0 103 -37q29 -20 65 -78q24 -40 61 -145l122 -346q42 -116 85.5 -184.5t79.5 -103t75 -48.5t64.5 -14t45.5 4l1 -10q-48 -16 -94 -16t-92 23.5t-86 65.5q-86 87 -146 265l-39 114h-274l-69 -178q-5 -12 -5 -24
t10.5 -25.5t32.5 -13.5h8v-10h-201v10h9q24 0 47 14.5t38 43.5l248 594q-54 77 -134 77q-36 0 -77 -15zM225 281h253l-79 233q-23 67 -42 105z" />
    <glyph glyph-name="amacron" unicode="&#x101;" 
d="M234 795v35h250v-35h-250zM715 10h8v-10h-225v10h9q21 0 31.5 13.5t10.5 25.5t-4 24l-64 170h-270l-67 -171q-4 -12 -4 -23.5t10.5 -25t31.5 -13.5h9v-10h-201v10h9q25 0 49 16t39 47l226 538q37 81 37 103h9l268 -641q14 -31 38 -47t50 -16zM223 273h246l-120 321z" />
    <glyph glyph-name="Abreve" unicode="&#x102;" 
d="M470 878q0 -28 -14 -52t-38 -38t-58.5 -14t-65 31t-30.5 73h10q8 -22 34 -38t53.5 -16t47.5 8q40 16 51 46h10zM118 734q65 27 125 27q50 0 103 -37q29 -20 65 -78q24 -40 61 -145l122 -346q42 -116 85.5 -184.5t79.5 -103t75 -48.5t64.5 -14t45.5 4l1 -10
q-48 -16 -94 -16t-92 23.5t-86 65.5q-86 87 -146 265l-39 114h-274l-70 -178q-4 -12 -4 -24t10.5 -25.5t31.5 -13.5h9v-10h-201v10h9q24 0 47 14.5t38 43.5l248 594q-54 77 -134 77q-36 0 -77 -15zM225 281h253l-79 233q-23 67 -42 105z" />
    <glyph glyph-name="abreve" unicode="&#x103;" 
d="M459 868q0 -28 -14 -52t-37.5 -38t-58.5 -14t-65.5 31t-30.5 73h10q8 -22 34 -38t59 -16t59 16t34 38h10zM715 10h8v-10h-225v10h9q21 0 31.5 13.5t10.5 25.5t-4 24l-64 170h-270l-67 -171q-4 -12 -4 -23.5t10.5 -25t31.5 -13.5h9v-10h-201v10h9q25 0 49 16t39 47
l226 538q37 81 37 103h9l268 -641q14 -31 38 -47t50 -16zM223 273h246l-120 321z" />
    <glyph glyph-name="Aogonek" unicode="&#x104;" horiz-adv-x="727" 
d="M103 720q53 15 95 15t70.5 -7t56.5 -26.5t46 -39.5t37 -51q26 -45 53 -112l138 -341q72 -178 154 -246q72 -59 168 -59h9l1 -10q-37 -7 -59.5 -7t-49.5 1.5t-67 13.5q-84 27 -153 138q-45 -6 -59 -48q-4 -11 -4 -24t8 -29q19 -37 58 -37q18 0 38 9l4 -8q-26 -30 -67 -30
q-33 0 -58 20q-32 26 -32 65q0 18 8 43t33.5 39t54.5 14h8q-33 56 -62 134l-43 114h-275l-70 -178q-4 -12 -4 -24t10.5 -25.5t31.5 -13.5h9v-10h-201v10h9q24 0 47 14.5t38 43.5l238 570q-64 76 -164 76q-25 0 -52 -4zM225 281h253l-87 229q-20 53 -42 89z" />
    <glyph glyph-name="aogonek" unicode="&#x105;" horiz-adv-x="737" 
d="M673 -113l6 -6q-8 -24 -29 -39t-36 -16.5t-27 -1.5t-32.5 6.5t-36 29.5t-16 46t4 34.5t11.5 21.5q14 19 35 30q26 15 26 35.5t-8 43.5l-69 172h-287l-71 -171q-4 -12 -4 -23.5t10.5 -25t31.5 -13.5h9v-10h-201v10h9q25 0 49 16t39 47l240 538q37 81 37 103h9l283 -646
q21 -46 65 -57q9 -2 18 -2h9v-9q-45 0 -70 2q-39 3 -67.5 -2t-44.5 -25.5t-16 -43.5t12 -40q22 -28 55 -28t56 24zM228 273h262l-128 323z" />
    <glyph glyph-name="Cacute" unicode="&#x106;" horiz-adv-x="821" 
d="M442 764l-7 7q76 82 127 131q27 -27 41 -53q-64 -37 -161 -85zM797 351q0 -172 -92.5 -268.5t-261.5 -96.5q-114 0 -205.5 48t-142 131t-50.5 185.5t50 185.5t138 130.5t196 47.5q68 0 138.5 -18.5t117.5 -48.5l20 -142h-9q-21 84 -97 131.5t-169 47.5
q-133 0 -221.5 -94.5t-88.5 -236.5q0 -94 40.5 -170.5t116 -121.5t171.5 -45q151 0 244.5 96t93.5 263h10q1 -12 1 -24z" />
    <glyph glyph-name="cacute" unicode="&#x107;" horiz-adv-x="760" 
d="M424 764l-7 7q76 82 127 131q27 -27 41 -53q-64 -37 -161 -85zM159.5 87q-99.5 100 -99.5 263.5t99.5 263.5t263.5 100q134 0 237 -68l20 -141h-9q-22 86 -89 132.5t-159 46.5q-131 0 -209.5 -91t-78.5 -241t77.5 -241.5t204.5 -94.5q112 0 187 61q81 66 98 215h8
l-12 -157q-91 -149 -281 -149q-158 1 -257.5 101z" />
    <glyph glyph-name="Cdotaccent" unicode="&#x10a;" horiz-adv-x="821" 
d="M441 765q-18 0 -30.5 12.5t-12.5 30.5t12.5 30.5t30.5 12.5t30.5 -12.5t12.5 -30.5t-12.5 -30.5t-30.5 -12.5zM797 351q0 -172 -92.5 -268.5t-261.5 -96.5q-114 0 -205.5 48t-142 131t-50.5 185.5t50 185.5t138 130.5t196 47.5q68 0 138.5 -18.5t117.5 -49.5l20 -141h-9
q-21 84 -97 131.5t-169 47.5q-133 0 -221.5 -94.5t-88.5 -237.5t91.5 -239.5t239.5 -96.5t241.5 96t93.5 263h10q1 -12 1 -24z" />
    <glyph glyph-name="cdotaccent" unicode="&#x10b;" horiz-adv-x="760" 
d="M423 765q-18 0 -30.5 12.5t-12.5 30.5t12.5 30.5t30.5 12.5t30.5 -12.5t12.5 -30.5t-12.5 -30.5t-30.5 -12.5zM159.5 87q-99.5 100 -99.5 263.5t99.5 263.5t263.5 100q134 0 237 -68l20 -141h-9q-22 86 -89 132.5t-159 46.5q-131 0 -209.5 -91t-78.5 -241t77.5 -241.5
t204.5 -94.5q112 0 187 61q81 66 98 215h8l-12 -157q-91 -149 -281 -149q-158 1 -257.5 101z" />
    <glyph glyph-name="Ccaron" unicode="&#x10c;" horiz-adv-x="821" 
d="M447 764h-10l-114 119l6 8l114 -66l104 66l6 -8zM797 351q0 -172 -92.5 -268.5t-261.5 -96.5q-114 0 -205.5 48t-142 131t-50.5 185.5t50 185.5t138 130.5t196 47.5q68 0 138.5 -18.5t116.5 -49.5l21 -141h-9q-21 84 -97 131.5t-169 47.5q-133 0 -221.5 -94.5
t-88.5 -237.5t91 -239.5t239.5 -96.5t242 96t93.5 263h10q1 -12 1 -24z" />
    <glyph glyph-name="ccaron" unicode="&#x10d;" horiz-adv-x="760" 
d="M429 764h-10l-114 119l6 8l114 -66l104 66l6 -8zM159.5 87q-99.5 100 -99.5 263.5t99.5 263.5t263.5 100q134 0 237 -68l20 -141h-9q-22 86 -89 132.5t-159 46.5q-131 0 -209.5 -91t-78.5 -241t77.5 -241.5t204.5 -94.5q112 0 187 61q81 66 98 215h8l-12 -157
q-91 -149 -281 -149q-158 1 -257.5 101z" />
    <glyph glyph-name="Dcaron" unicode="&#x10e;" horiz-adv-x="838" 
d="M425 764h-10l-114 119l6 8l114 -66l104 66l6 -8zM-100 554q29 85 97 117t241 32q36 0 182 -3q161 -4 259 -98q47 -45 73.5 -109.5t26.5 -142.5q0 -157 -99.5 -253.5t-259.5 -96.5h-339l1 10h12q25 0 43 16.5t21 40.5v603q-140 -4 -196 -53q-19 -17 -29 -31t-22 -36z
M223 670v-640h197q127 0 205.5 88t78.5 232q0 95 -35.5 167.5t-100 112.5t-148.5 40h-197z" />
    <glyph glyph-name="dcaron" unicode="&#x10f;" horiz-adv-x="807" 
d="M406 764h-10l-114 119l6 8l114 -66l105 66l6 -8zM658.5 603.5q99.5 -96.5 99.5 -253.5t-99.5 -253.5t-259.5 -96.5h-339v10h13q26 0 44.5 18.5t19.5 44.5v560q0 24 -19.5 40.5t-44.5 16.5h-12l-1 10h339q160 0 259.5 -96.5zM202 670v-640h197q128 0 206 88t78 232
t-78.5 232t-205.5 88h-197z" />
    <glyph glyph-name="Dcroat" unicode="&#x110;" horiz-adv-x="838" 
d="M298 795v35h250v-35h-250zM82 695q45 7 83 7.5t73.5 0.5t181.5 -3q106 -3 187 -46t126.5 -122t45.5 -182q0 -157 -99.5 -253.5t-259.5 -96.5h-339l1 10h12q25 0 43 16.5t21 40.5v603q-125 -3 -177 -39q-27 -19 -41 -36.5t-29 -44.5l-11 4q15 44 38.5 73t61 45t82.5 23z
M223 670v-640h197q127 0 205.5 88t78.5 232q0 95 -35.5 167.5t-100 112.5t-148.5 40h-197z" />
    <glyph glyph-name="dcroat" unicode="&#x111;" horiz-adv-x="807" 
d="M279 795v35h250v-35h-250zM658.5 603.5q99.5 -96.5 99.5 -253.5t-99.5 -253.5t-259.5 -96.5h-339v10h13q26 0 44.5 18.5t19.5 44.5v560q0 24 -19.5 40.5t-44.5 16.5h-12l-1 10h339q160 0 259.5 -96.5zM202 670v-640h197q128 0 206 88t78 232t-78.5 232t-205.5 88h-197z
" />
    <glyph glyph-name="Emacron" unicode="&#x112;" horiz-adv-x="607" 
d="M126 795v35h250v-35h-250zM73 10q26 0 44.5 18.5t19.5 44.5v560q0 24 -19 40.5t-45 16.5h-12l-1 10h203q31 0 67.5 6t51.5 12v-126h-10v18q0 24 -16.5 41t-39.5 18h-114v-309h190q20 1 34 15t14 35v14h10v-158h-10v15q0 20 -13.5 34t-33.5 15h-191v-299h213q74 0 113 33
t65 98h10l-58 -162h-485v10h13z" />
    <glyph glyph-name="emacron" unicode="&#x113;" horiz-adv-x="577" 
d="M175 795v35h250v-35h-250zM73 10q26 0 44.5 18.5t19.5 44.5v560q0 24 -19 40.5t-45 16.5h-12l-1 10h293q31 0 67.5 6t51.5 12v-126h-10v18q0 24 -16.5 41t-39.5 18h-204v-309h169q20 1 34 15t14 35v14h10v-158h-10v15q0 20 -13.5 34t-33.5 15h-170v-299h143q74 0 113 33
t65 98h10l-58 -162h-415v10h13z" />
    <glyph glyph-name="Edotaccent" unicode="&#x116;" horiz-adv-x="607" 
d="M247 765q-18 0 -30.5 12.5t-12.5 30.5t12.5 30.5t30.5 12.5t30.5 -12.5t12.5 -30.5t-12.5 -30.5t-30.5 -12.5zM73 10q26 0 44.5 18.5t19.5 44.5v560q0 24 -19 40.5t-45 16.5h-12l-1 10h203q31 0 67.5 6t51.5 12v-126h-10v18q0 24 -16.5 41t-39.5 18h-114v-309h190
q20 1 34 15t14 35v14h10v-158h-10v15q0 20 -13.5 34t-33.5 15h-191v-299h213q74 0 113 33t65 98h10l-58 -162h-485v10h13z" />
    <glyph glyph-name="edotaccent" unicode="&#x117;" horiz-adv-x="577" 
d="M295.5 765q-17.5 0 -30.5 12.5t-13 30.5t13 30.5t30.5 12.5t30.5 -12.5t13 -30.5t-13 -30.5t-30.5 -12.5zM73 10q26 0 44.5 18.5t19.5 44.5v560q0 24 -19 40.5t-45 16.5h-12l-1 10h293q43 0 76.5 7t42.5 11v-126h-10v18q0 24 -16.5 41t-39.5 18h-204v-309h169q20 1 34 15
t14 35v14h10v-158h-10v15q0 20 -13.5 34t-33.5 15h-170v-299h143q74 0 113 33t65 98h10l-58 -162h-415v10h13z" />
    <glyph glyph-name="Eogonek" unicode="&#x118;" horiz-adv-x="607" 
d="M470 -75q0 -30 20.5 -50t49 -20t52.5 25l6 -6q-9 -24 -29 -39q-24 -17 -48.5 -17t-45 7t-36 30t-15.5 56t23 57t59 32h-446v10h13q26 0 44.5 18.5t19.5 44.5v560q0 24 -19 40.5t-45 16.5h-12l-1 10h203q31 0 67.5 6t51.5 12v-126h-10v18q0 24 -16.5 41t-39.5 18h-114
v-309h190q20 1 34 15t14 35v14h10v-158h-10v15q0 20 -13.5 34t-33.5 15h-191v-299h213q74 0 113 33t65 98h10l-58 -162q-75 -18 -75 -75z" />
    <glyph glyph-name="eogonek" unicode="&#x119;" horiz-adv-x="577" 
d="M400 -75q0 -30 20 -50t49 -20t53 25l6 -6q-9 -24 -30 -39q-23 -17 -47.5 -17t-45 7t-36 30t-15.5 56t23 57t59 32h-376v10h13q26 0 44.5 18.5t19.5 44.5v560q0 24 -19 40.5t-45 16.5h-12l-1 10h293q31 0 67.5 6t51.5 12v-126h-10v18q0 24 -16.5 41t-39.5 18h-204v-309
h169q20 1 34 15t14 35v14h10v-158h-10v15q0 20 -13.5 34t-33.5 15h-170v-299h143q74 0 113 33t65 98h10l-59 -162q-74 -18 -74 -75z" />
    <glyph glyph-name="Ecaron" unicode="&#x11a;" horiz-adv-x="607" 
d="M253 764h-10l-114 119l6 8l114 -66l104 66l6 -8zM73 10q26 0 44.5 18.5t19.5 44.5v560q0 24 -19 40.5t-45 16.5h-12l-1 10h203q31 0 67.5 6t51.5 12v-126h-10v18q0 24 -16.5 41t-39.5 18h-114v-309h190q20 1 34 15t14 35v14h10v-158h-10v15q0 20 -13.5 34t-33.5 15h-191
v-299h213q74 0 113 33t65 98h10l-58 -162h-485v10h13z" />
    <glyph glyph-name="ecaron" unicode="&#x11b;" horiz-adv-x="577" 
d="M302 764h-10l-114 119l6 8l113 -66l105 66l6 -8zM73 10q26 0 44.5 18.5t19.5 44.5v560q0 24 -19 40.5t-45 16.5h-12l-1 10h293q31 0 67.5 6t51.5 12v-126h-10v18q0 24 -16.5 41t-39.5 18h-204v-309h169q20 1 34 15t14 35v14h10v-158h-10v15q0 31 -29 45q-8 4 -18 4h-170
v-299h143q74 0 113 33t65 98h10l-58 -162h-415v10h13z" />
    <glyph glyph-name="Gbreve" unicode="&#x11e;" horiz-adv-x="846" 
d="M553 868q0 -28 -14 -52t-38 -38t-58.5 -14t-65 31t-30.5 73h10q8 -22 33.5 -38t59 -16t59.5 16t34 38h10zM969 -174q-127 0 -208 81q-60 60 -79 151q-95 -72 -233 -72q-109 0 -198.5 47.5t-140 130.5t-50.5 187t50.5 187.5t139.5 129.5t199 46q138 0 243 -68l20 -141h-9
q-22 86 -88.5 132.5t-165.5 46.5q-135 0 -224.5 -94t-89.5 -238.5t89.5 -239.5t224.5 -96q87 0 162 40q35 20 63 47v177q0 22 -13 33.5t-37 11.5h-16v10h196v-10h-15q-25 0 -38 -11.5t-12 -33.5v-154q6 -158 103 -226q68 -48 176 -48q45 0 98 9l1 -10q-80 -25 -148 -25z" />
    <glyph glyph-name="gbreve" unicode="&#x11f;" horiz-adv-x="798" 
d="M519 868q0 -28 -14 -52t-37.5 -38t-58.5 -14t-65.5 31t-30.5 73h10q8 -22 34 -38t59.5 -16t59 16t33.5 38h10zM159.5 87q-99.5 100 -99.5 263t99.5 263.5t259.5 100.5q138 0 243 -68l20 -141h-9q-22 86 -88.5 132.5t-165.5 46.5q-127 0 -205.5 -92t-78.5 -242
t78.5 -241.5t205.5 -92.5q65 0 123.5 23t102.5 64v177q0 22 -13.5 33.5t-37.5 11.5h-16v10h196v-10h-15q-25 0 -38 -11.5t-12 -33.5v-165q-41 -54 -114 -91.5t-176 -37.5q-160 1 -259.5 101z" />
    <glyph glyph-name="Gdotaccent" unicode="&#x120;" horiz-adv-x="846" 
d="M448 765q-18 0 -30.5 12.5t-12.5 30.5t12.5 30.5t30.5 12.5t30.5 -12.5t12.5 -30.5t-12.5 -30.5t-30.5 -12.5zM969 -174q-127 0 -208 81q-60 60 -79 151q-95 -72 -233 -72q-109 0 -198.5 47.5t-140 130.5t-50.5 187t50.5 187.5t139.5 129.5t199 46q138 0 243 -68l20 -141
h-9q-30 116 -136 158q-52 21 -118 21q-135 0 -224.5 -94t-89.5 -238.5t90 -239.5t224 -96q65 0 124 23t101 64v177q0 22 -13 33.5t-37 11.5h-16v10h196v-10h-15q-25 0 -38 -11.5t-12 -33.5v-154q6 -158 103 -226q68 -48 176 -48q45 0 98 9l1 -10q-80 -25 -148 -25z" />
    <glyph glyph-name="gdotaccent" unicode="&#x121;" horiz-adv-x="798" 
d="M415 765q-18 0 -30.5 12.5t-12.5 30.5t12.5 30.5t30.5 12.5t30.5 -12.5t12.5 -30.5t-12.5 -30.5t-30.5 -12.5zM159.5 87q-99.5 100 -99.5 263t99.5 263.5t259.5 100.5q138 0 243 -68l20 -141h-9q-22 86 -88.5 132.5t-165.5 46.5q-127 0 -205.5 -92t-78.5 -242
t78.5 -241.5t205.5 -92.5q65 0 123.5 23t102.5 64v177q0 22 -13.5 33.5t-37.5 11.5h-16v10h196v-10h-15q-25 0 -38 -11.5t-12 -33.5v-165q-26 -34 -62 -61t-96.5 -47.5t-131.5 -20.5q-160 1 -259.5 101z" />
    <glyph glyph-name="Gcommaaccent" unicode="&#x122;" horiz-adv-x="846" 
d="M969 -174q-127 0 -208 81q-60 60 -79 151q-95 -72 -233 -72q-109 0 -198.5 47.5t-140 130.5t-50.5 187t50.5 187.5t139.5 129.5t199 46q138 0 243 -68l20 -141h-9q-30 116 -136 158q-52 21 -118 21q-135 0 -224.5 -94t-89.5 -238.5t90 -239.5t224 -96q65 0 124 23t101 64
v177q0 22 -13 33.5t-37 11.5h-16v10h196v-10h-15q-25 0 -38 -11.5t-12 -33.5v-154q6 -158 103 -226q68 -48 176 -48q45 0 98 9l1 -10q-80 -25 -148 -25zM422 -81q8 17 29 17q23 0 32.5 -22.5t9.5 -43t-13 -40.5q-23 -36 -64 -38l-2 7q22 7 31 22q16 27 -4 51q-2 2 -6 6.5
t-6 7t-5 7t-3 8.5q-3 9 1 18z" />
    <glyph glyph-name="gcommaaccent" unicode="&#x123;" horiz-adv-x="798" 
d="M159.5 87q-99.5 100 -99.5 263t99.5 263.5t259.5 100.5q138 0 243 -68l20 -141h-9q-22 86 -88.5 132.5t-165.5 46.5q-127 0 -205.5 -92t-78.5 -242t78.5 -241.5t205.5 -92.5q65 0 123.5 23t102.5 64v177q0 22 -13.5 33.5t-37.5 11.5h-16v10h196v-10h-15q-25 0 -38 -11.5
t-12 -33.5v-165q-26 -34 -62 -61t-96.5 -47.5t-131.5 -20.5q-160 1 -259.5 101zM391 -91q8 17 29 17q23 0 32.5 -22.5t9.5 -36.5q0 -43 -25.5 -63.5t-51.5 -21.5l-2 7q22 7 31 22q16 27 -4 51q-2 2 -6 6.5t-6 7t-5 7t-3 8.5q-3 9 1 18z" />
    <glyph glyph-name="Hbar" unicode="&#x126;" horiz-adv-x="816" 
d="M729 10h12v-10h-218v10h13q25 0 43.5 17.5t20.5 43.5v260h-387v-261q0 -140 -68 -188q-31 -22 -80 -33l-5 9q45 24 66.5 74t21.5 138v428h-88v30h88v100q0 26 -19 44t-45 18h-12l-1 10h219v-10h-13q-26 0 -44.5 -18t-19.5 -44v-100h387v82q1 111 41 160q36 45 108 61
l5 -9q-45 -24 -66.5 -74t-22.5 -138v-82h64v-30h-64v-425q0 -37 32 -55q14 -8 32 -8zM213 361h387v137h-387v-137z" />
    <glyph glyph-name="hbar" unicode="&#x127;" horiz-adv-x="813" 
d="M547 10q26 0 44.5 18t19.5 44v259h-409v-258q0 -26 19 -44.5t45 -18.5h13v-10h-219v10h13q26 0 44.5 18.5t19.5 44.5v425h-63v30h63v100q-1 26 -19.5 44t-44.5 18h-13v10h219v-10h-13q-26 0 -44.5 -18t-19.5 -44v-100h409v100q-1 36 -32 54q-15 8 -32 8h-13v10h219v-10
h-13q-26 0 -40 -13q-23 -24 -24 -50v-99h66v-30h-66v-425q1 -26 19.5 -44.5t44.5 -18.5h13v-10h-219v10h13zM202 361h409v137h-409v-137z" />
    <glyph glyph-name="Imacron" unicode="&#x12a;" horiz-adv-x="393" 
d="M102 795v35h250v-35h-250zM321 10h13v-10h-219v10h13q26 0 45 18.5t19 44.5v600l-107 -6q-101 -6 -101 -73q0 -27 17.5 -46t55.5 -21v-6q-15 -3 -35.5 -3t-46 20t-25.5 59q0 85 129 99q1 0 99.5 6.5t155.5 17.5l2 -10q-43 -7 -61 -29t-18 -61v-547q1 -26 19.5 -44.5
t44.5 -18.5z" />
    <glyph glyph-name="imacron" unicode="&#x12b;" horiz-adv-x="338" 
d="M47 795v35h250v-35h-250zM73 10q26 0 44.5 18.5t19.5 44.5v555q-1 26 -19.5 44t-44.5 18h-13v10h219v-10h-13q-26 0 -44.5 -18t-19.5 -44v-555q0 -26 19 -44.5t45 -18.5h13v-10h-219v10h13z" />
    <glyph glyph-name="Iogonek" unicode="&#x12e;" horiz-adv-x="393" 
d="M169 -75q0 -30 20 -50t49 -20t53 25l6 -6q-9 -24 -30 -39q-23 -17 -48 -17t-45.5 7t-35.5 30t-15 56t23 57t59 32h-90v10h13q26 0 45 18.5t19 44.5v600l-107 -6q-101 -6 -101 -73q0 -27 17.5 -46t55.5 -21v-6q-15 -3 -35.5 -3t-46 20t-25.5 59q0 85 129 99q1 0 99.5 6.5
t155.5 17.5l2 -10q-43 -7 -61 -29t-18 -61v-547q0 -26 19 -44.5t45 -18.5h13v-10h-91q-74 -17 -74 -75z" />
    <glyph glyph-name="iogonek" unicode="&#x12f;" horiz-adv-x="338" 
d="M114 -75q0 -30 20.5 -50t49 -20t52.5 25l6 -6q-9 -24 -29 -39q-24 -17 -48.5 -17t-45 7t-36 30t-15.5 56t23 57t59 32h-90v10h13q26 0 44.5 18.5t19.5 44.5v555q-1 26 -19.5 44t-44.5 18h-13v10h219v-10h-13q-26 0 -44.5 -18t-19.5 -44v-555q0 -26 19 -44.5t45 -18.5h13
v-10h-90q-75 -17 -75 -75z" />
    <glyph glyph-name="Idotaccent" unicode="&#x130;" horiz-adv-x="393" 
d="M223 765q-18 0 -30.5 12.5t-12.5 30.5t12.5 30.5t30.5 12.5t30.5 -12.5t12.5 -30.5t-12.5 -30.5t-30.5 -12.5zM321 10h13v-10h-219v10h13q26 0 45 18.5t19 44.5v600l-107 -6q-101 -6 -101 -73q0 -27 17.5 -46t55.5 -21v-6q-14 -3 -28 -3q-44 0 -66 35q-13 20 -13 44
q0 85 129 99q1 0 99.5 6.5t155.5 17.5l2 -10q-43 -7 -61 -29t-18 -61v-547q1 -26 19.5 -44.5t44.5 -18.5z" />
    <glyph glyph-name="dotlessi" unicode="&#x131;" horiz-adv-x="338" 
d="M73 10q26 0 44.5 18.5t19.5 44.5v555q-1 26 -19.5 44t-44.5 18h-13v10h219v-10h-13q-26 0 -44.5 -18t-19.5 -44v-555q0 -26 19 -44.5t45 -18.5h13v-10h-219v10h13z" />
    <glyph glyph-name="IJ" unicode="&#x132;" horiz-adv-x="732" 
d="M321 10h13v-10h-219v10h13q26 0 45 18.5t19 44.5v600l-107 -6q-101 -6 -101 -73q0 -27 17.5 -46t55.5 -21v-6q-14 -3 -28 -3q-44 0 -66 35q-13 20 -13 44q0 85 129 99q1 0 99.5 6.5t155.5 17.5l2 -10q-43 -7 -61 -29t-18 -61v-547q1 -26 19.5 -44.5t44.5 -18.5zM313 -135
q27 -9 53.5 -9t55.5 11t53 34.5t39.5 70.5t15.5 111v544q0 26 -19 44.5t-45 18.5h-13v10h219v-10h-13q-26 0 -44.5 -18t-19.5 -45v-547q0 -68 -21 -119t-53 -77q-60 -47 -133 -47q-43 0 -79 17z" />
    <glyph glyph-name="ij" unicode="&#x133;" horiz-adv-x="662" 
d="M604 690q-36 0 -55 -31q-8 -14 -9 -32v-627q0 -84 -52.5 -142t-129.5 -58v9q49 17 83 73.5t34 120.5v624q-1 26 -19.5 44.5t-44.5 18.5h-13v10h219v-10h-13zM73 10q26 0 44.5 18.5t19.5 44.5v555q-1 26 -19.5 44t-44.5 18h-13v10h219v-10h-13q-26 0 -44.5 -18t-19.5 -44
v-555q0 -26 19 -44.5t45 -18.5h13v-10h-219v10h13z" />
    <glyph glyph-name="Kcommaaccent" unicode="&#x136;" horiz-adv-x="669" 
d="M266 10h13v-10h-219v10h13q26 0 44.5 18.5t19.5 44.5v555q-1 26 -19.5 44t-44.5 18h-13v10h219v-10h-13q-26 0 -44.5 -18t-19.5 -44v-555q0 -26 19 -44.5t45 -18.5zM959 -150v-10q-38 -9 -76 -9q-164 0 -318 164l-331 353l236 296q8 10 8 18t-3 14q-8 15 -29 15h-10v9
h211v-9h-4q-66 0 -108 -47l-233 -269l340 -363q66 -71 148.5 -116.5t168.5 -45.5zM364 -81q8 17 29 17q23 0 32 -22.5t9 -36.5q0 -43 -25 -63.5t-52 -21.5l-2 7q23 7 32 22q16 27 -5 51q-1 2 -5 6.5t-6 7t-5 7t-4 8.5q-2 9 2 18z" />
    <glyph glyph-name="kcommaaccent" unicode="&#x137;" horiz-adv-x="657" 
d="M266 10h13v-10h-219v10h13q26 0 44.5 18.5t19.5 44.5v555q-1 26 -19.5 44t-44.5 18h-13v10h219v-10h-13q-26 0 -44.5 -18t-19.5 -44v-555q0 -26 19 -44.5t45 -18.5zM668 0h-43q-102 0 -150 57l-241 291l236 296q8 10 8 18t-3 14q-8 15 -29 15h-10v9h211v-9h-4
q-66 0 -108 -47l-235 -272l273 -321q40 -40 95 -41v-10zM367 -81q8 17 29 17q23 0 32 -22.5t9 -36.5q0 -43 -25.5 -63.5t-51.5 -21.5l-2 7q23 7 31 22q16 27 -4 51q-1 2 -5 6.5t-6 7t-5 7t-4 8.5q-2 9 2 18z" />
    <glyph glyph-name="Lacute" unicode="&#x139;" horiz-adv-x="401" 
d="M169 764l-7 7q77 82 127 131q27 -27 41 -53q-64 -37 -161 -85zM250 -19q213 -74 319.5 -100.5t183 -26.5t168.5 35l5 -8q-122 -84 -246 -84q-127 0 -289 79q-125 62 -155 75q-107 48 -176 49v10h13q26 0 44.5 18t19.5 45v554q-1 26 -19.5 44.5t-44.5 18.5h-13v10h219v-10
h-13q-36 0 -55 -31q-9 -15 -9 -32v-577q0 -18 2 -27.5t13 -21.5t33 -20z" />
    <glyph glyph-name="lacute" unicode="&#x13a;" horiz-adv-x="562" 
d="M170 764l-7 7q76 82 127 131q27 -27 41 -53q-64 -37 -161 -85zM73 10q26 0 44.5 18.5t19.5 44.5v554q-1 26 -19.5 44.5t-44.5 18.5h-13v10h219v-10h-13q-36 0 -55 -31q-9 -15 -9 -32v-596h143q74 0 113 33t65 98h10l-58 -162h-415v10h13z" />
    <glyph glyph-name="Lcommaaccent" unicode="&#x13b;" horiz-adv-x="401" 
d="M250 -19q213 -74 319.5 -100.5t183 -26.5t168.5 35l5 -8q-122 -84 -246 -84q-127 0 -289 79q-125 62 -155 75q-107 48 -176 49v10h13q26 0 44.5 18t19.5 45v554q-1 26 -19.5 44.5t-44.5 18.5h-13v10h219v-10h-13q-26 0 -45 -18.5t-19 -44.5v-577q0 -18 2 -27.5t13 -21.5
t33 -20zM210 -127q8 17 29 17q23 0 32.5 -22.5t9.5 -43t-13 -40.5q-23 -36 -65 -38l-2 7q23 7 32 22q16 27 -5 51q-1 2 -5 6.5t-6 7t-5 7t-4 8.5q-2 9 2 18z" />
    <glyph glyph-name="lcommaaccent" unicode="&#x13c;" horiz-adv-x="562" 
d="M73 10q26 0 44.5 18.5t19.5 44.5v554q-1 26 -19.5 44.5t-44.5 18.5h-13v10h219v-10h-13q-36 0 -55 -31q-9 -15 -9 -32v-596h143q74 0 113 33t65 98h10l-58 -162h-415v10h13zM276 -81q7 17 29 17q23 0 32.5 -22.5t9.5 -43t-13 -40.5q-24 -36 -65 -38l-2 7q23 7 31 22
q16 27 -4 51q-1 2 -5 6.5t-6 7t-5 7t-4 8.5q-2 9 2 18z" />
    <glyph glyph-name="Lcaron" unicode="&#x13d;" horiz-adv-x="401" 
d="M432 683.5q9 -22.5 9 -43t-13 -41.5q-23 -36 -64 -37l-2 6q22 7 31 22q16 29 -9 57q-21 24 -14 41.5t30 17.5t32 -22.5zM250 -19q213 -74 319.5 -100.5t183 -26.5t168.5 35l5 -8q-122 -84 -246 -84q-127 0 -289 79q-125 62 -155 75q-107 48 -176 49v10h13q26 0 44.5 18
t19.5 45v554q-1 26 -19.5 44.5t-44.5 18.5h-13v10h219v-10h-13q-36 0 -55 -31q-9 -15 -9 -32v-577q0 -18 2 -27.5t13 -21.5t33 -20z" />
    <glyph glyph-name="lcaron" unicode="&#x13e;" horiz-adv-x="562" 
d="M432 683.5q9 -22.5 9 -43t-13 -41.5q-23 -36 -64 -37l-2 6q22 7 31 22q16 29 -9 57q-21 24 -14 41.5t30 17.5t32 -22.5zM73 10q26 0 44.5 18.5t19.5 44.5v554q-1 26 -19.5 44.5t-44.5 18.5h-13v10h219v-10h-13q-26 0 -45 -18.5t-19 -44.5v-596h143q74 0 113 33t65 98h10
l-58 -162h-415v10h13z" />
    <glyph glyph-name="Ldot" unicode="&#x13f;" horiz-adv-x="476" 
d="M250 -19q213 -74 319.5 -100.5t183 -26.5t168.5 35l5 -8q-122 -84 -246 -84q-127 0 -289 79q-125 62 -155 75q-107 48 -176 49v10h13q26 0 44.5 18t19.5 45v554q-1 26 -19.5 44.5t-44.5 18.5h-13v10h219v-10h-13q-26 0 -45 -18.5t-19 -44.5v-577q0 -18 2 -27.5t13 -21.5
t33 -20zM334.5 403q-18.5 0 -32 13t-13.5 32t13.5 32t32 13t31.5 -13t13 -32t-13 -32t-31.5 -13z" />
    <glyph glyph-name="ldot" unicode="&#x140;" horiz-adv-x="562" 
d="M73 10q26 0 44.5 18.5t19.5 44.5v554q-1 26 -19.5 44.5t-44.5 18.5h-13v10h219v-10h-13q-36 0 -55 -31q-9 -15 -9 -32v-596h143q74 0 113 33t65 98h10l-58 -162h-415v10h13zM334.5 403q-18.5 0 -32 13t-13.5 32t13.5 32t32 13t31.5 -13t13 -32t-13 -32t-31.5 -13z" />
    <glyph glyph-name="Lslash" unicode="&#x141;" horiz-adv-x="443" 
d="M250 -19q213 -74 319.5 -100.5t183 -26.5t168.5 35l5 -8q-122 -84 -246 -84q-127 0 -289 79q-125 62 -155 75q-107 48 -176 49v10h13q26 0 44.5 18t19.5 45v211l-62 -36l-15 26l77 44v309q-1 26 -19.5 44.5t-44.5 18.5h-13v10h219v-10h-13q-36 0 -55 -31q-9 -15 -9 -32
v-271l167 96l15 -26l-182 -105v-271q0 -18 2 -27.5t13 -21.5t33 -20z" />
    <glyph glyph-name="lslash" unicode="&#x142;" horiz-adv-x="562" 
d="M73 10q26 0 44.5 18.5t19.5 44.5v235l-104 -60l-15 26l119 69v284q-1 26 -19.5 44.5t-44.5 18.5h-13v10h219v-10h-13q-26 0 -45 -18.5t-19 -44.5v-247l124 72l15 -26l-139 -80v-315h143q74 0 113 33t65 98h10l-58 -162h-415v10h13z" />
    <glyph glyph-name="Nacute" unicode="&#x143;" horiz-adv-x="841" 
d="M426 764l-7 7q76 82 127 131q27 -27 41 -53q-65 -37 -161 -85zM1054 -152q-48 -15 -83.5 -15t-64 7.5t-56.5 20t-56 34.5q-47 38 -96 91l-527 584v-500q1 -35 31 -52q14 -8 30 -8h19v-10h-206v10h19q25 0 43 17.5t18 43.5v549q-6 8 -18.5 24t-21.5 27.5t-24 28.5t-27 29
t-29 26.5t-32 23.5q-39 24 -63.5 28t-46.5 4t-47 -7l-4 10q50 21 102 21q101 0 213 -116q17 -18 40 -43l504 -560v513q-1 26 -19 43.5t-43 17.5h-19v10h206v-10h-18q-25 0 -43 -17.5t-19 -42.5v-565q10 -11 28.5 -33t26 -31t22.5 -26t25.5 -26.5t26 -24t29 -23t30.5 -19.5
q24 -14 54.5 -21t50 -7t41.5 4z" />
    <glyph glyph-name="nacute" unicode="&#x144;" horiz-adv-x="841" 
d="M426 764l-7 7q76 82 127 131q27 -27 41 -53q-65 -37 -161 -85zM778 690q-25 0 -43 -17.5t-19 -42.5v-516q0 -58 7 -110l2 -18h-9l-545 582v-498q0 -25 18 -42.5t43 -17.5h19v-10h-206v10h19q25 0 43 17.5t18 43.5v519q0 61 -7 109l-2 16h10l545 -582v496q-1 26 -19 43.5
t-43 17.5h-19v10h206v-10h-18z" />
    <glyph glyph-name="Ncommaaccent" unicode="&#x145;" horiz-adv-x="841" 
d="M1054 -152q-48 -15 -83.5 -15t-64 7.5t-56.5 20t-56 34.5q-47 38 -96 91l-527 584v-500q1 -35 31 -52q14 -8 30 -8h19v-10h-206v10h19q25 0 43 17.5t18 43.5v549q-6 8 -18.5 24t-21.5 27.5t-24 28.5t-27 29t-29 26.5t-32 23.5q-39 24 -63.5 28t-46.5 4t-47 -7l-4 10
q48 20 92.5 20t76.5 -10.5t69 -37.5t60.5 -50t56.5 -60l504 -560v513q-1 26 -19 43.5t-43 17.5h-19v10h206v-10h-18q-25 0 -43 -17.5t-19 -42.5v-565q10 -11 28.5 -33t26 -31t22.5 -26t25.5 -26.5t26 -24t29 -23t30.5 -19.5q24 -14 54.5 -21t50 -7t41.5 4zM399 -81
q7 17 28 17q24 0 33.5 -22.5t9.5 -43t-13 -40.5q-24 -36 -65 -38l-2 7q22 7 31 22q16 27 -4 51q-2 2 -5.5 6.5t-6 7t-5 7t-3.5 8.5q-2 9 2 18z" />
    <glyph glyph-name="ncommaaccent" unicode="&#x146;" horiz-adv-x="841" 
d="M778 690q-25 0 -43 -17.5t-19 -42.5v-516q0 -58 7 -110l2 -18h-9l-545 582v-498q0 -25 18 -42.5t43 -17.5h19v-10h-206v10h19q25 0 43 17.5t18 43.5v519q0 61 -7 109l-2 16h10l545 -582v496q-1 26 -19 43.5t-43 17.5h-19v10h206v-10h-18zM399 -81q7 17 28 17
q24 0 33.5 -22.5t9.5 -43t-13 -40.5q-24 -36 -65 -38l-2 7q22 7 31 22q16 27 -4 51q-2 2 -5.5 6.5t-6 7t-5 7t-3.5 8.5q-2 9 2 18z" />
    <glyph glyph-name="Ncaron" unicode="&#x147;" horiz-adv-x="841" 
d="M431 764h-10l-114 119l6 8l113 -66l105 66l6 -8zM1054 -152q-80 -25 -144 -9q-67 18 -116 56q-47 38 -96 91l-527 584v-500q0 -25 18 -42.5t43 -17.5h19v-10h-206v10h19q25 0 43 17.5t18 43.5v549q-5 7 -20 26.5t-25 31.5t-27 31.5t-31.5 31.5t-33.5 28q-30 23 -64 33
t-57.5 10t-50.5 -8l-4 10q52 22 87 22t62 -7.5t54 -20.5t56 -38q46 -39 96 -94l504 -560v513q-1 26 -19 43.5t-43 17.5h-19v10h206v-10h-18q-25 0 -43 -17.5t-19 -42.5v-565q10 -11 39.5 -46t52.5 -59t63 -57q62 -49 135 -49q21 0 44 4z" />
    <glyph glyph-name="ncaron" unicode="&#x148;" horiz-adv-x="841" 
d="M431 764h-10l-114 119l6 8l113 -66l105 66l6 -8zM778 690q-25 0 -43 -17.5t-19 -42.5v-516q0 -58 7 -110l2 -18h-9l-545 582v-498q0 -25 18 -42.5t43 -17.5h19v-10h-206v10h19q25 0 43 17.5t18 43.5v519q0 61 -7 109l-2 16h10l545 -582v496q-1 26 -19 43.5t-43 17.5h-19
v10h206v-10h-18z" />
    <glyph glyph-name="Eng" unicode="&#x14a;" horiz-adv-x="819" 
d="M-158 766q50 21 102 21q100 0 213 -116q17 -17 40 -43l462 -494v501q0 22 -15.5 37t-37.5 15h-16v13h184v-13h-16q-22 0 -37.5 -15t-15.5 -37v-667q0 -51 -18.5 -88t-46 -55t-63.5 -26l-5 8q37 17 62.5 56.5t25.5 106.5v63l-500 535v-503q0 -30 26 -45q13 -7 27 -7h16
v-13h-184v13h16q21 0 36 14t16 35v563q-92 113 -173 133q-20 5 -44.5 5t-49.5 -7z" />
    <glyph glyph-name="eng" unicode="&#x14b;" horiz-adv-x="839" 
d="M743 687q-21 0 -36.5 -15t-16.5 -37v-667q0 -51 -18.5 -88t-46 -55t-63.5 -26l-5 8q37 17 62.5 56.5t25.5 106.5v63l-500 535v-503q0 -22 15.5 -37t37.5 -15h16v-13h-184v13h16q22 0 37.5 15t15.5 37v525q0 61 -6 109l-3 16h10l545 -581v501q-1 22 -12 33q-20 19 -42 19
h-15l-1 13h184v-13h-16z" />
    <glyph glyph-name="Omacron" unicode="&#x14c;" horiz-adv-x="929" 
d="M347 795v35h250v-35h-250zM277 467q-4 13 -4 22.5t1 21.5t4.5 33t13.5 41.5t23 39.5t33.5 35t45.5 28q53 26 129 26q153 0 249.5 -101.5t96.5 -259.5t-114 -262.5t-289 -104.5t-290.5 104t-115.5 270q0 107 50 190t143 130l6 -9q-65 -43 -93.5 -124t-28.5 -172
q0 -169 92 -264t236 -95t235.5 95.5t91.5 251.5q0 135 -72.5 228t-204.5 93q-59 0 -107 -21q-87 -37 -115 -122q-8 -25 -8 -43t2 -29z" />
    <glyph glyph-name="omacron" unicode="&#x14d;" horiz-adv-x="848" 
d="M303 795v35h250v-35h-250zM424.5 714q170.5 0 277.5 -100.5t107 -263.5t-107 -263.5t-277.5 -100.5t-277.5 100.5t-107 263.5t107 263.5t277.5 100.5zM424 16q138 0 222.5 92t84.5 242t-84.5 242t-222.5 92t-222.5 -92t-84.5 -242t84.5 -242t222.5 -92z" />
    <glyph glyph-name="Ohungarumlaut" unicode="&#x150;" horiz-adv-x="929" 
d="M412 768l-11 2q30 66 67 131q36 -2 61 -12q-54 -60 -117 -121zM534 768l-11 2q31 73 67 131q30 0 61 -12q-68 -76 -117 -121zM277 467q-4 13 -4 22.5t1 21.5t4.5 33t13.5 41.5t23 39.5t33.5 35t45.5 28q53 26 142 26t168.5 -47t122 -127.5t42.5 -184.5t-52 -189.5
t-144 -132.5t-206.5 -47t-207 46.5t-146 132t-53.5 194t50 191.5t143 130l6 -9q-44 -29 -73 -82q-49 -89 -49 -214q0 -85 25 -153.5t70 -113.5q91 -92 232 -92q95 0 169.5 43t116.5 122t42 182q0 131 -69 223q-33 45 -87 71.5t-117 26.5t-111 -21q-87 -37 -115 -122
q-8 -25 -8 -43t2 -29z" />
    <glyph glyph-name="ohungarumlaut" unicode="&#x151;" horiz-adv-x="848" 
d="M491 768l-11 2q30 73 67 131q29 0 60 -12q-67 -76 -116 -121zM368 768l-11 2q31 66 67 131q37 -2 61 -12q-54 -60 -117 -121zM424.5 714q170.5 0 277.5 -100.5t107 -263.5t-107 -263.5t-277.5 -100.5t-277.5 100.5t-107 263.5t107 263.5t277.5 100.5zM424.5 16
q138.5 0 222.5 92t84 242t-84 242t-222.5 92t-223 -92t-84.5 -242t84.5 -242t223 -92z" />
    <glyph glyph-name="OE" unicode="&#x152;" horiz-adv-x="997" 
d="M596 0q-40 0 -100 -7t-82 -7q-159 0 -256.5 100t-97.5 264q0 81 25.5 149t71.5 115t112.5 73.5t131.5 26.5t113.5 -7t79.5 -7h62q31 0 68 6t51 12v-126h-12v18q0 24 -16 41t-40 18h-110v-309h189q21 1 35 15t14 35v14h10v-158h-10v15q0 20 -14 34t-34 15h-190v-299h208
q73 0 112 33t65 98h10l-58 -162h-338zM414 684q-127 0 -204.5 -92t-77.5 -242t77.5 -242t204.5 -92q65 0 102 21q20 12 20 27v572q0 25 -37 36.5t-85 11.5z" />
    <glyph glyph-name="oe" unicode="&#x153;" horiz-adv-x="976" 
d="M596 0q-40 0 -100 -7t-82 -7q-159 0 -256.5 100t-97.5 264q0 81 25.5 149t71.5 115t112.5 73.5t131.5 26.5t114 -7t80 -7h157q31 0 68 6t51 12v-126h-12v18q0 24 -16 41t-40 18h-206v-309h173q21 1 35 15t14 35v14h10v-158h-10v15q0 20 -14 34t-34 15h-174v-299h148
q73 0 112 33t65 98h10l-58 -162h-278zM414 684q-127 0 -204.5 -92t-77.5 -242t77.5 -242t204.5 -92q65 0 102 21q20 12 20 27v572q0 25 -37 36.5t-85 11.5z" />
    <glyph glyph-name="Racute" unicode="&#x154;" horiz-adv-x="652" 
d="M324 764l-7 7q76 82 126 131q27 -27 41 -53q-64 -37 -160 -85zM948 -170q-42 -11 -74.5 -11t-57.5 4t-53.5 15.5t-53.5 26.5t-50 37q-46 37 -83.5 80t-144.5 161.5t-142 157.5t-54 41v10q58 0 77.5 2.5t41.5 9t37 17.5q59 38 59 126q0 73 -32.5 117t-91.5 45h-124v-596
q0 -25 18.5 -44t45.5 -19h12l1 -10h-219v10h13q25 0 44 18t20 44v555q-1 26 -19.5 44.5t-44.5 18.5h-13v10h270q58 0 102.5 -22.5t68.5 -63.5t24 -95q0 -81 -49 -139.5t-120 -58.5h-1q34 -36 77 -84q173 -191 222 -240t86.5 -80.5t66.5 -46.5q59 -32 117 -32q12 0 24 2v-10z
" />
    <glyph glyph-name="racute" unicode="&#x155;" horiz-adv-x="677" 
d="M313 764l-7 7q76 82 127 131q27 -27 41 -53q-64 -37 -161 -85zM266 669h-64v-596q0 -26 18.5 -44.5t45.5 -18.5h12l1 -10h-219v10h13q26 0 44.5 18t19.5 44v555q-1 26 -19.5 44.5t-44.5 18.5h-13v10h270q91 0 143 -50.5t52 -131t-49.5 -139t-120.5 -58.5
q15 -7 35.5 -27.5t36.5 -42.5q86 -123 114 -153.5t41.5 -42.5t29.5 -23q33 -22 76 -22v-10h-55q-43 0 -80 15.5t-55.5 32t-32 32t-74.5 103.5t-71 100.5t-21 24.5q-32 34 -64 34v10q8 -1 21 -1t32 1q124 3 156 104q6 20 6 37.5v22.5q-2 67 -35 108t-89 44q-24 1 -60 1z" />
    <glyph glyph-name="Rcommaaccent" unicode="&#x156;" horiz-adv-x="652" 
d="M948 -170q-42 -11 -74.5 -11t-57.5 4t-53.5 15.5t-53.5 26.5t-50 37q-46 37 -83.5 80t-144.5 161.5t-142 157.5t-54 41v10q58 0 77.5 2.5t41.5 9t37 17.5q59 38 59 126q0 73 -32.5 117t-91.5 45h-124v-596q0 -25 18.5 -44t45.5 -19h12l1 -10h-219v10h13q25 0 44 18t20 44
v555q-1 26 -19.5 44.5t-44.5 18.5h-13v10h270q88 0 141.5 -49.5t53.5 -131t-49 -140t-120 -58.5h-1q34 -36 77 -84q173 -191 222 -240t86.5 -80.5t66.5 -46.5q59 -32 117 -32q12 0 24 2v-10zM350 -67q8 17 29 17q24 0 33 -22.5t9 -43t-13 -40.5q-23 -36 -64 -38l-2 7
q22 7 31 22q16 27 -4 51q-2 2 -6 6.5t-6 7t-4.5 7t-3.5 8.5q-3 9 1 18z" />
    <glyph glyph-name="rcommaaccent" unicode="&#x157;" horiz-adv-x="677" 
d="M266 669h-64v-596q0 -26 18.5 -44.5t45.5 -18.5h12l1 -10h-219v10h13q26 0 44.5 18t19.5 44v555q-1 26 -19.5 44.5t-44.5 18.5h-13v10h270q91 0 143 -50.5t52 -131t-49.5 -139t-120.5 -58.5q15 -7 35.5 -27.5t36.5 -42.5q86 -123 112 -151.5t37 -39t24 -20.5t26 -16
q29 -14 62 -14v-10h-55q-43 0 -80 15.5t-55.5 32t-32 32t-74.5 103.5t-71 100.5t-21 24.5q-32 34 -64 34v10q8 -1 21 -1t32 1q124 3 156 104q6 20 6 37.5v22.5q-2 67 -35 108t-89 44q-24 1 -60 1zM352 -81q8 17 29 17q23 0 32.5 -22.5t9.5 -43t-13 -40.5q-23 -36 -65 -38
l-1 7q22 7 31 22q16 27 -4 51q-2 2 -6 6.5t-6 7t-5 7t-3 8.5q-3 9 1 18z" />
    <glyph glyph-name="Rcaron" unicode="&#x158;" horiz-adv-x="652" 
d="M329 764h-10l-115 119l6 8l114 -66l105 66l6 -8zM948 -170q-43 -11 -80 -11t-69.5 8.5t-63 23t-60.5 38.5q-55 42 -96 89t-148 165.5t-142 157.5t-54 41v10q58 0 77.5 2.5t41.5 9t37 17.5q59 38 59 126q0 73 -32.5 117t-91.5 45h-124v-596q0 -25 18.5 -44t45.5 -19h12
l1 -10h-219v10h13q25 0 44 18t20 44v555q-1 26 -19.5 44.5t-44.5 18.5h-13v10h270q88 0 141.5 -49.5t53.5 -131t-49 -140t-120 -58.5h-1q35 -37 117.5 -128t133 -144.5t74 -77t61 -55t66.5 -46.5q59 -32 117 -32q12 0 24 2v-10z" />
    <glyph glyph-name="rcaron" unicode="&#x159;" horiz-adv-x="677" 
d="M318 764h-10l-114 119l6 8l114 -66l104 66l6 -8zM266 669h-64v-596q0 -26 18.5 -44.5t45.5 -18.5h12v-10h-218v10h13q26 0 44.5 18t19.5 44v555q-1 26 -19.5 44.5t-44.5 18.5h-13v10h270q91 0 143 -50.5t52 -131t-49.5 -139t-120.5 -58.5q15 -7 35.5 -27.5t36.5 -42.5
q86 -123 122.5 -163t67 -59t71.5 -19v-10h-55q-43 0 -80 15.5t-55.5 32t-32 32t-74.5 103.5t-71 100.5t-21 24.5q-32 34 -64 34v10q8 -1 21 -1t32 1q124 3 156 104q6 20 6 37.5v22.5q-2 67 -35 108t-89 44q-24 1 -60 1z" />
    <glyph glyph-name="Sacute" unicode="&#x15a;" horiz-adv-x="549" 
d="M282 764l-7 7q77 82 127 131q27 -27 41 -53q-64 -37 -161 -85zM119 266q-52 -68 -52 -147q0 -94 79 -146q46 -31 104.5 -31t101.5 23q81 42 91 141q1 7 1 14q0 37 -20.5 80t-66.5 79l-180 142q-59 47 -59 119.5t47 123t127 50.5q40 0 87 -10h40l2 -123h-10
q-1 48 -34.5 75.5t-84 27.5t-84.5 -33.5t-34 -86t44 -87.5l185 -146q110 -87 110 -210q0 -92 -73 -158q-63 -57 -168 -57q-64 0 -114 24q-94 44 -113 150q-3 16 -3 40.5t14 67t54 85.5z" />
    <glyph glyph-name="sacute" unicode="&#x15b;" horiz-adv-x="476" 
d="M247 764l-7 7q76 82 127 131q27 -27 41 -53q-64 -37 -161 -85zM61 41q-3 14 -3 54t15 85h9q-1 -11 -1 -22q0 -61 37 -101.5t98 -40.5q63 0 103.5 38t40.5 95.5t-39 93.5l-192 178q-54 50 -54 121t47.5 121.5t128.5 50.5q38 0 86 -10h39v-123h-9q0 47 -32.5 75t-83.5 28
t-85.5 -34t-34.5 -85t40 -88l197 -182q50 -46 50 -126t-51 -131.5t-136 -51.5q-44 0 -93.5 13.5t-76.5 41.5z" />
    <glyph glyph-name="Scedilla" unicode="&#x15e;" horiz-adv-x="549" 
d="M119 266q-52 -68 -52 -147q0 -94 79 -146q46 -31 104.5 -31t101.5 23q81 42 91 141q1 7 1 14q0 37 -20.5 80t-66.5 79l-180 142q-59 46 -59 119t47 123.5t127 50.5q40 0 87 -10h40l2 -123h-10q-1 48 -34.5 75.5t-84 27.5t-84.5 -33.5t-34 -86t44 -87.5l185 -146
q110 -87 110 -211q0 -85 -65 -150q-58 -57 -156 -63l-41 -48q16 6 33 6q42 0 57 -20.5t15 -46.5q0 -44 -44 -65q-26 -12 -50.5 -12t-46.5 7l1 10q36 0 63 15.5t27 45.5q0 44 -51 44q-17 0 -33 -8l-5 10l47 61q-62 2 -111 26q-91 46 -109 150q-2 15 -2 39t14.5 66.5
t53.5 85.5z" />
    <glyph glyph-name="scedilla" unicode="&#x15f;" horiz-adv-x="476" 
d="M61 41q-3 14 -3 54t15 85h9q-1 -11 -1 -22q0 -61 37 -101.5t98 -40.5q63 0 103.5 38t40.5 95.5t-39 93.5l-192 178q-54 50 -54 121t47.5 121.5t128.5 50.5q38 0 86 -10h39v-123h-9q0 47 -32.5 75t-83.5 28t-85.5 -34t-34.5 -85t40 -88l197 -182q50 -46 50 -123.5
t-45.5 -128t-122.5 -56.5l-40 -47q16 6 33 6q42 0 57 -20.5t15 -46.5q0 -44 -44 -65q-25 -12 -50 -12t-47 7l1 10q36 0 63 15t27 46q0 44 -51 44q-16 0 -33 -8l-5 10l46 60q-44 2 -89.5 15.5t-71.5 39.5z" />
    <glyph glyph-name="Scaron" unicode="&#x160;" horiz-adv-x="549" 
d="M287 764h-10l-114 119l6 8l114 -66l105 66l6 -8zM119 266q-52 -68 -52 -147q0 -94 79 -146q46 -31 104.5 -31t101.5 23q81 42 91 141q1 7 1 14q0 37 -20.5 80t-66.5 79l-180 142q-59 46 -59 119t47 123.5t127 50.5q40 0 87 -10h40l2 -123h-10q-1 48 -34.5 75.5t-84 27.5
t-84.5 -33.5t-34 -86t44 -87.5l185 -146q110 -87 110 -210q0 -92 -73 -158q-63 -57 -168 -57q-64 0 -114 24q-94 44 -113 150q-3 16 -3 40.5t14 67t54 85.5z" />
    <glyph glyph-name="scaron" unicode="&#x161;" horiz-adv-x="476" 
d="M252 764h-10l-114 119l6 8l114 -66l104 66l6 -8zM61 41q-3 14 -3 54t15 85h9q-1 -11 -1 -22q0 -61 37 -101.5t98 -40.5q63 0 103.5 38t40.5 95.5t-39 93.5l-192 178q-54 50 -54 121t47.5 121.5t128.5 50.5q38 0 85 -10h40v-123h-10q1 47 -31.5 75t-83.5 28t-85.5 -34
t-34.5 -85t40 -88l197 -182q50 -46 50 -126t-51 -131.5t-136 -51.5q-45 0 -94 13.5t-76 41.5z" />
    <glyph glyph-name="Tcedilla" unicode="&#x162;" horiz-adv-x="618" 
d="M-59 501q-31 37 -31 73.5t17 63t55 45t86 18.5h410q44 0 77.5 7t43.5 11v-126l-10 1v17q0 24 -17 41.5t-40 18.5h-190v-599q1 -26 19.5 -44t44.5 -18h13v-10h-93l-41 -48q16 6 33 6q42 0 57 -20.5t15 -46.5q0 -44 -44 -65q-26 -12 -50.5 -12t-46.5 7l1 10q36 0 63 15
t27 46q0 44 -51 44q-17 0 -33 -8l-5 10l47 62h-98v10h13q26 0 44.5 18t19.5 43v600h-209q-80 0 -116 -51q-19 -26 -19 -54.5t16 -59.5z" />
    <glyph glyph-name="tcedilla" unicode="&#x163;" horiz-adv-x="618" 
d="M341 -108q0 44 -50 44q-17 0 -33 -8l-5 10l47 62h-100v10h13q26 0 44.5 18t19.5 43v600h-190q-33 -1 -49 -30q-8 -14 -8 -30v-17l-10 -1v126q15 -6 52 -12t68 -6h338q31 0 68.5 6t52.5 12v-126l-10 1v17q0 24 -17 41.5t-40 18.5h-190v-599q1 -26 19.5 -44t44.5 -18h13
v-10h-92l-41 -48q31 11 57 4q48 -13 48 -61t-43 -69q-26 -12 -50.5 -12t-46.5 7v10q37 0 63.5 15t26.5 46z" />
    <glyph glyph-name="Tcaron" unicode="&#x164;" horiz-adv-x="618" 
d="M314 700h-10l-114 119l6 8l113 -66l105 66l6 -8zM-59 501q-31 37 -31 73.5t17 63t55 45t86 18.5h410q44 0 77.5 7t43.5 11v-126l-10 1v17q0 24 -17 41.5t-40 18.5h-190v-599q1 -26 19.5 -44t44.5 -18h13v-10h-219v10h13q26 0 44.5 18t19.5 43v600h-209q-52 0 -88 -24
q-46 -30 -46 -81q0 -28 15 -60z" />
    <glyph glyph-name="tcaron" unicode="&#x165;" horiz-adv-x="618" 
d="M314 764h-10l-114 119l6 8l113 -66l105 66l6 -8zM589 611q0 24 -17 41.5t-40 18.5h-190v-599q1 -26 19.5 -44t44.5 -18h13v-10h-219v10h13q26 0 44.5 18t19.5 43v600h-190q-24 -1 -40.5 -18.5t-16.5 -41.5v-17l-10 -1v126q15 -6 52 -12t68 -6h338q31 0 68.5 6t52.5 12
v-126l-10 1v17z" />
    <glyph glyph-name="Tbar" unicode="&#x166;" horiz-adv-x="618" 
d="M-59 501q-31 37 -31 73.5t17 63t55 45t86 18.5h410q31 0 68.5 6t52.5 12v-126l-10 1v17q0 34 -29 51q-13 8 -28 9h-190v-285h162v-30h-162v-284q1 -36 32 -54q15 -8 32 -8h13v-10h-219v10h13q26 0 44.5 18t19.5 43v285h-161v30h161v285h-209q-80 0 -116 -51
q-19 -26 -19 -54.5t16 -59.5z" />
    <glyph glyph-name="tbar" unicode="&#x167;" horiz-adv-x="618" 
d="M589 611q0 34 -29 51q-13 8 -28 9h-190v-270h162v-30h-162v-299q1 -26 19.5 -44t44.5 -18h13v-10h-219v10h13q26 0 44.5 18t19.5 43v300h-161v30h161v270h-190q-24 -1 -40.5 -18.5t-16.5 -41.5v-17l-10 -1v126q15 -6 52 -12t68 -6h338q31 0 68.5 6t52.5 12v-126l-10 1v17
z" />
    <glyph glyph-name="Umacron" unicode="&#x16a;" horiz-adv-x="783" 
d="M887 872h17v-10q-110 0 -174 -72.5t-64 -209.5v-333q0 -117 -74 -189t-197 -72t-199.5 71.5t-76.5 188.5v395q0 29 -26 43q-12 6 -27 6h-16v10h203v-10h-16q-22 0 -37 -13.5t-16 -34.5v-382q0 -109 58.5 -175.5t153.5 -66.5q101 0 162 63t61 166v332q0 147 74.5 220
t193.5 73zM299 795v35h250v-35h-250z" />
    <glyph glyph-name="umacron" unicode="&#x16b;" horiz-adv-x="785" 
d="M279 795v35h250v-35h-250zM735 690h-16q-21 0 -36.5 -13.5t-16.5 -33.5v-396q0 -117 -74 -189t-197 -72t-199.5 71.5t-76.5 188.5v394q0 30 -26 44q-12 6 -27 6h-16v10h203v-10h-16q-22 0 -37 -13.5t-16 -34.5v-382q0 -109 58.5 -176t156.5 -67t159 63.5t61 166.5v395
q-1 21 -16 34.5t-37 13.5h-16v10h185v-10z" />
    <glyph glyph-name="Uring" unicode="&#x16e;" horiz-adv-x="783" 
d="M374 904.5q21 9.5 55 9.5t60.5 -20t26.5 -55q0 -44 -46 -65q-22 -10 -55 -10t-60 21.5t-27 48.5t12.5 44t33.5 26.5zM421.5 897q-21.5 0 -35 -15.5t-13.5 -42.5t13.5 -42t35 -15t35.5 15t14 42t-14 42.5t-35.5 15.5zM887 872h17v-10q-110 0 -174 -72.5t-64 -209.5v-333
q0 -117 -74 -189t-197 -72t-199.5 71.5t-76.5 188.5v394q0 22 -15.5 36t-37.5 14h-16v10h203v-10h-16q-30 0 -45 -23q-7 -11 -8 -25v-382q0 -109 58.5 -176t156.5 -67t159 63.5t61 166.5v332q0 147 74.5 220t193.5 73z" />
    <glyph glyph-name="uring" unicode="&#x16f;" horiz-adv-x="785" 
d="M354 904.5q21 9.5 55 9.5t60.5 -20t26.5 -55q0 -44 -46 -65q-22 -10 -55 -10t-60 21.5t-27 48.5t12.5 44t33.5 26.5zM401.5 897q-21.5 0 -35 -15.5t-13.5 -42.5t13.5 -42t35 -15t35.5 15t14 42t-14 42.5t-35.5 15.5zM735 690h-16q-21 0 -36.5 -13.5t-16.5 -33.5v-396
q0 -117 -74 -189t-197 -72t-199.5 71.5t-76.5 188.5v394q0 22 -15.5 36t-37.5 14h-16v10h203v-10h-16q-22 0 -37 -13.5t-16 -34.5v-382q0 -109 58.5 -176t156.5 -67t159 63.5t61 166.5v395q-1 21 -16 34.5t-37 13.5h-16v10h185v-10z" />
    <glyph glyph-name="Uhungarumlaut" unicode="&#x170;" horiz-adv-x="783" 
d="M365 768l-11 2q30 66 67 131q36 -2 60 -12q-54 -60 -116 -121zM487 768l-11 2q30 73 67 131q29 0 61 -12q-68 -76 -117 -121zM887 872h17v-10q-110 0 -174 -72.5t-64 -209.5v-333q0 -117 -74 -189t-197 -72t-199.5 71.5t-76.5 188.5v395q0 21 -15.5 35t-37.5 14h-16v10
h203v-10h-16q-30 0 -45 -23q-7 -11 -8 -25v-382q0 -109 58.5 -175.5t156.5 -66.5t159 63t61 166v332q0 147 74.5 220t193.5 73z" />
    <glyph glyph-name="uhungarumlaut" unicode="&#x171;" horiz-adv-x="785" 
d="M345 768l-11 2q30 66 67 131q36 -2 60 -12q-54 -60 -116 -121zM467 768l-11 2q30 73 67 131q29 0 61 -12q-68 -76 -117 -121zM735 690h-16q-21 0 -36.5 -13.5t-16.5 -33.5v-396q0 -117 -74 -189t-197 -72t-199.5 71.5t-76.5 188.5v395q0 21 -15.5 35t-37.5 14h-16v10h203
v-10h-16q-30 0 -45 -23q-7 -11 -8 -25v-382q0 -109 58.5 -176t156.5 -67t159 63.5t61 166.5v395q-1 21 -16 34.5t-36 13.5h-17v10h185v-10z" />
    <glyph glyph-name="Uogonek" unicode="&#x172;" horiz-adv-x="783" 
d="M372 -85q0 -30 20 -50t49 -20t53 25l6 -6q-9 -24 -30 -39q-39 -28 -91 -11q-22 8 -37.5 31t-15.5 54t18.5 53.5t49.5 33.5q-124 1 -199.5 72t-75.5 188v395q0 29 -26 43q-12 6 -27 6h-16v10h203v-10h-16q-22 0 -37 -13.5t-16 -34.5v-382q0 -109 58.5 -175.5t153.5 -66.5
q101 0 162 63t61 166v332q0 147 74.5 220t193.5 73h17v-10q-110 0 -174 -72.5t-64 -209.5v-333q0 -105 -60.5 -174.5t-163.5 -83.5q-70 -19 -70 -74z" />
    <glyph glyph-name="uogonek" unicode="&#x173;" horiz-adv-x="785" 
d="M372 -85q0 -30 20 -50t49 -20t53 25l6 -6q-9 -24 -30 -39q-23 -17 -47.5 -17t-45 7t-36 30t-15.5 54t18.5 53.5t49.5 33.5q-124 1 -199.5 72t-75.5 188v394q0 30 -26 44q-12 6 -27 6h-16v10h203v-10h-16q-22 0 -37 -13.5t-16 -34.5v-382q0 -109 58.5 -176t156.5 -67
t159 63.5t61 166.5v395q-1 21 -16 34.5t-37 13.5h-16v10h185v-10h-16q-21 0 -36.5 -13.5t-16.5 -33.5v-396q0 -105 -60.5 -174.5t-163.5 -83.5q-70 -19 -70 -74z" />
    <glyph glyph-name="Wcircumflex" unicode="&#x174;" horiz-adv-x="954" 
d="M1191 944h13v-10q-47 -2 -89 -22t-71 -47.5t-54 -66.5q-40 -62 -68 -142l-192 -557q-20 -63 -22 -111h-9l-204 571l-161 -504q-36 -113 -116 -176q-58 -47 -130 -47q-25 0 -53 6l2 10q15 -3 34.5 -3t52 12t64.5 43q65 63 100 158l-202 571q-12 30 -37 45.5t-51 15.5h-8
v10h222v-10h-9q-21 0 -31.5 -13.5t-10.5 -25.5t3 -22l152 -487l186 574l9 -1l198 -554l148 495q26 87 80 157q100 131 254 131zM502 890h10l114 -119l-6 -8l-114 66l-104 -66l-6 8z" />
    <glyph glyph-name="wcircumflex" unicode="&#x175;" horiz-adv-x="982" 
d="M502 900h10l114 -119l-6 -8l-114 66l-104 -66l-6 8zM992 690h-8q-26 0 -51.5 -15.5t-36.5 -46.5l-166 -529q-20 -63 -22 -111h-9l-204 572l-152 -461q-19 -62 -21 -111h-9l-227 641q-12 30 -37 45.5t-51 15.5h-8v10h222v-10h-9q-21 0 -31.5 -13.5t-10.5 -25.5t3 -22
l152 -487l186 574l9 -1l197 -553l134 468q3 11 3 22.5t-10 24.5t-31 13h-9v10h197v-10z" />
    <glyph glyph-name="Ycircumflex" unicode="&#x176;" horiz-adv-x="618" 
d="M326 890h10l114 -119l-6 -8l-114 66l-104 -66l-6 8zM-40 757h25t49 -6t57.5 -17.5t52 -33t43.5 -40t36.5 -48.5t30 -51t25.5 -55q18 -43 29.5 -75.5t12.5 -36.5q4 -10 7 -18q3 7 12 31.5t16.5 43.5t22 54t25.5 55t28.5 50.5t33.5 48.5t38.5 39t44.5 32q54 27 110 27v-10
q-56 0 -114.5 -59t-100 -142.5t-68 -173t-26.5 -152.5v-147q0 -25 18.5 -44t45.5 -19h12l1 -10h-219v10h13q25 0 44 18t20 44v149q0 67 -28 157t-72 172.5t-105 139.5t-120 57v10z" />
    <glyph glyph-name="ycircumflex" unicode="&#x177;" horiz-adv-x="661" 
d="M338 890h10l114 -119l-6 -8l-113 66l-105 -66l-6 8zM672 690h-14q-30 0 -56.5 -16.5t-44.5 -41.5l-197 -320v-239q0 -26 18.5 -44.5t45.5 -18.5h12l1 -10h-219v10h13q26 0 44.5 18t19.5 44v241l-191 319q-15 24 -42.5 41t-57.5 17h-14v10h246v-10h-13q-22 0 -34 -20
q-6 -11 -6 -21.5t5 -20.5l150 -280l160 281q5 10 5 20t-7 21q-12 20 -34 20h-12v10h222v-10z" />
    <glyph glyph-name="Ydieresis" unicode="&#x178;" horiz-adv-x="618" 
d="M237 764q-16 0 -27.5 11.5t-11.5 27.5t11.5 27.5t27.5 11.5t27.5 -11.5t11.5 -27.5t-11.5 -27.5t-27.5 -11.5zM425 764q-16 0 -27.5 11.5t-11.5 27.5t11.5 27.5t27.5 11.5t27.5 -11.5t11.5 -27.5t-11.5 -27.5t-27.5 -11.5zM-40 757h25t49 -6t57.5 -17.5t52 -33t43.5 -40
t36.5 -48.5t30 -51t25.5 -55q18 -43 29 -74.5t12 -34.5t3 -7q3 -8 5 -14q3 7 14 37t20.5 54t29.5 68t36.5 69.5t42.5 58.5t52 51q64 43 136 43v-10q-56 0 -114.5 -59t-100 -142.5t-68 -173t-26.5 -152.5v-147q0 -36 31 -54q15 -9 33 -9h12v-10h-218v10h13q25 0 44 18t20 44
v149q0 67 -28 157t-72 172.5t-105 139.5t-120 57v10z" />
    <glyph glyph-name="Zacute" unicode="&#x179;" horiz-adv-x="636" 
d="M324 764l-7 7q76 82 127 131q27 -27 41 -53q-65 -37 -161 -85zM996 -89q-93 -108 -250 -108q-120 0 -245 42q-142 48 -224 84q-154 68 -205 71h-12v9l420 662h-337q-34 -1 -51 -30q-8 -14 -8 -30v-18h-10v126q15 -6 53 -12t52.5 -6h15.5h279q49 0 75 5.5t31 7.5v-9
l-437 -690q9 -2 107 -34q342 -112 507 -112q127 0 234 50z" />
    <glyph glyph-name="zacute" unicode="&#x17a;" horiz-adv-x="651" 
d="M324 764l-7 7q76 82 127 131q27 -27 41 -53q-65 -37 -161 -85zM84 611v-18h-10v126q15 -6 53 -12t52.5 -6h15.5h279q42 0 71 5t35 8v-9l-428 -675h318q53 0 87.5 34t49.5 90h10l-33 -154h-524v9l420 662h-337q-25 -1 -42 -18t-17 -42z" />
    <glyph glyph-name="Zdotaccent" unicode="&#x17b;" horiz-adv-x="636" 
d="M322.5 765q-17.5 0 -30 12.5t-12.5 30.5t12.5 30.5t30 12.5t30.5 -12.5t13 -30.5t-13 -30.5t-30.5 -12.5zM996 -89q-93 -108 -250 -108q-120 0 -245 42q-142 48 -224 84q-154 68 -205 71h-12v9l420 662h-337q-34 -1 -51 -30q-8 -14 -8 -30v-18h-10v126q15 -6 53 -12
t52.5 -6h15.5h279q42 0 71 5t35 8v-9l-437 -690q9 -2 107 -34q342 -112 507 -112q127 0 234 50z" />
    <glyph glyph-name="zdotaccent" unicode="&#x17c;" horiz-adv-x="651" 
d="M322.5 765q-17.5 0 -30 12.5t-12.5 30.5t12.5 30.5t30 12.5t30.5 -12.5t13 -30.5t-13 -30.5t-30.5 -12.5zM84 611v-18h-10v126q15 -6 53 -12t52.5 -6h15.5h279q49 0 75 5.5t31 7.5v-9l-428 -675h318q53 0 87.5 34t49.5 90h10l-33 -154h-524v9l420 662h-337
q-25 -1 -42 -18t-17 -42z" />
    <glyph glyph-name="Zcaron" unicode="&#x17d;" horiz-adv-x="636" 
d="M329 764h-10l-114 119l6 8l113 -66l105 66l6 -8zM749 -198q-146 0 -325 69q-78 30 -143 57q-163 69 -209 72h-12v9l420 662h-337q-25 -1 -42 -18t-17 -42v-18h-10v126q15 -6 53 -12t52.5 -6h15.5h279q49 0 75 5.5t31 7.5v-9l-437 -690q9 -2 107 -34q342 -112 507 -112
q127 0 234 50l5 -8q-50 -58 -115.5 -83.5t-131.5 -25.5z" />
    <glyph glyph-name="zcaron" unicode="&#x17e;" horiz-adv-x="651" 
d="M329 764h-10l-114 119l6 8l113 -66l105 66l6 -8zM84 611v-18h-10v126q15 -6 53 -12t52.5 -6h15.5h279q42 0 71 5t35 8v-9l-428 -675h318q53 0 87.5 34t49.5 90h10l-33 -154h-524v9l420 662h-337q-25 -1 -42 -18t-17 -42z" />
    <glyph glyph-name="florin" unicode="&#x192;" horiz-adv-x="493" 
d="M423 518q0 22 -13.5 36.5t-35.5 14.5h-189v-254h156q19 0 29 12t10 30v13h10v-140h-10v13q0 17 -9.5 29t-27.5 13h-158v-285q0 -72 -49 -125t-116 -53v10q43 15 72 63.5t29 104.5v538q-1 35 -32 48q-10 4 -21 4h-13v10h275q27 0 58.5 5t44.5 11v-114l-10 1v15z" />
    <glyph glyph-name="Scommaaccent" unicode="&#x218;" horiz-adv-x="549" 
d="M119 266q-52 -68 -52 -147q0 -94 79 -146q46 -31 104.5 -31t101.5 23q81 42 91 141q1 7 1 14q0 37 -20.5 80t-66.5 79l-180 142q-59 46 -59 119t47 123.5t127 50.5q40 0 87 -10h40l2 -123h-10q-1 48 -34.5 75.5t-84 27.5t-84.5 -33.5t-34 -86t44 -87.5l185 -146
q110 -87 110 -210q0 -92 -73 -158q-63 -57 -168 -57q-64 0 -114 24q-94 44 -113 150q-3 16 -3 40.5t14 67t54 85.5zM252 -157q7 18 29 18q23 0 33 -22.5t10 -43t-13 -40.5q-23 -37 -64 -39l-2 7q23 7 31 23q16 28 -5 50q-2 2 -6 6.5t-6 7t-5 7t-4 8.5q-2 9 2 18z" />
    <glyph glyph-name="scommaaccent" unicode="&#x219;" horiz-adv-x="476" 
d="M61 41q-3 14 -3 54t15 85h9q-1 -11 -1 -22q0 -61 37 -101.5t98 -40.5q63 0 103.5 38t40.5 95.5t-39 93.5l-192 178q-54 50 -54 121t47.5 121.5t128.5 50.5q38 0 86 -10h39v-123h-9q0 47 -32.5 75t-83.5 28t-85.5 -34t-34.5 -85t40 -88l197 -182q50 -46 50 -126
t-51 -131.5t-136 -51.5q-44 0 -93.5 13.5t-76.5 41.5zM215 -81q8 17 29 17q23 0 32.5 -22.5t9.5 -43t-13 -40.5q-24 -36 -65 -38l-2 7q23 7 31 22q16 27 -4 51q-1 2 -5 6.5t-6 7t-5 7t-4 8.5q-2 9 2 18z" />
    <glyph glyph-name="uni021A" unicode="&#x21a;" horiz-adv-x="618" 
d="M-59 501q-31 37 -31 73.5t17 63t55 45t86 18.5h410q44 0 77.5 7t43.5 11v-126l-10 1v17q0 24 -17 41.5t-40 18.5h-190v-599q1 -26 19.5 -44t44.5 -18h13v-10h-219v10h13q26 0 44.5 18t19.5 43v600h-209q-80 0 -116 -51q-19 -26 -19 -54.5t16 -59.5zM343 -85.5
q10 -22.5 10 -43t-13 -40.5q-23 -36 -64 -38l-2 7q23 7 31 22q16 27 -5 51q-1 2 -5 6.5t-6.5 7t-5 7t-3.5 8.5q-3 9 1 18q6 17 29 17t33 -22.5z" />
    <glyph glyph-name="uni021B" unicode="&#x21b;" horiz-adv-x="618" 
d="M589 611q0 24 -17 41.5t-40 18.5h-190v-599q1 -26 19.5 -44t44.5 -18h13v-10h-219v10h13q26 0 44.5 18t19.5 43v600h-190q-24 -1 -40.5 -18.5t-16.5 -41.5v-17l-10 -1v126q15 -6 52 -12t68 -6h338q49 0 81.5 7.5t39.5 10.5v-126l-10 1v17zM282 -81q8 17 29 17
q23 0 32.5 -22.5t9.5 -43t-13 -40.5q-24 -36 -65 -38l-2 7q23 7 31 22q16 27 -4 51q-1 2 -5 6.5t-6 7t-5 7t-4 8.5q-2 9 2 18z" />
    <glyph glyph-name="circumflex" unicode="&#x2c6;" horiz-adv-x="600" 
d="M272 856h10l114 -119l-6 -8l-114 66l-104 -66l-6 8z" />
    <glyph glyph-name="caron" unicode="&#x2c7;" horiz-adv-x="600" 
d="M290 729h-10l-114 119l6 8l113 -66l105 66l6 -8z" />
    <glyph glyph-name="breve" unicode="&#x2d8;" horiz-adv-x="440" 
d="M323 854q0 -28 -14 -52t-37.5 -38t-58.5 -14t-65.5 31t-30.5 73h10q8 -22 34 -38t59 -16t59 16t34 38h10z" />
    <glyph glyph-name="dotaccent" unicode="&#x2d9;" horiz-adv-x="600" 
d="M301 701q-18 0 -30.5 12.5t-12.5 30.5t12.5 30.5t30.5 12.5t30.5 -12.5t12.5 -30.5t-12.5 -30.5t-30.5 -12.5z" />
    <glyph glyph-name="ring" unicode="&#x2da;" horiz-adv-x="600" 
d="M253.5 839.5q21.5 9.5 55 9.5t60 -20t26.5 -55q0 -33 -26.5 -54t-67 -21t-67 21.5t-26.5 48.5t12 44t33.5 26.5zM301.5 832q-21.5 0 -35.5 -15.5t-14 -42.5t14 -42.5t35.5 -15.5t35 15.5t13.5 42.5t-13.5 42.5t-35 15.5z" />
    <glyph glyph-name="ogonek" unicode="&#x2db;" horiz-adv-x="600" 
d="M303 -62q0 -30 20.5 -50t49 -20t52.5 25l6 -6q-9 -24 -29 -39q-24 -17 -48.5 -17t-45 7t-36 30t-15.5 59.5t32.5 62.5t78.5 26l10 -3q-75 -18 -75 -75z" />
    <glyph glyph-name="tilde" unicode="&#x2dc;" horiz-adv-x="600" 
d="M347 745q41 0 55 34h10q-6 -50 -34 -70q-14 -9 -34 -9t-61.5 22t-56.5 22q-37 0 -54 -41h-10q6 39 23 62t41 23t64.5 -21.5t56.5 -21.5z" />
    <glyph glyph-name="hungarumlaut" unicode="&#x2dd;" horiz-adv-x="600" 
d="M212 751l-11 2q30 65 67 131q36 -2 61 -13q-54 -60 -117 -120zM334 751l-11 2q30 73 67 131q30 0 61 -13q-68 -75 -117 -120z" />
    <glyph glyph-name="commaaccentcomb" unicode="&#x326;" horiz-adv-x="0" 
d="M100.5 -22.5q9.5 -22.5 9.5 -43t-13 -40.5q-24 -36 -65 -38l-2 7q22 7 31 22q16 27 -4 51q-2 2 -5.5 6.5t-6 7t-5 7t-3.5 8.5q-2 9 2 18q6 17 29 17t32.5 -22.5z" />
    <glyph glyph-name="Delta" unicode="&#x394;" horiz-adv-x="652" 
d="M647 0h-642v10l316 704h10l316 -704v-10zM558 30l-251 582l-258 -582h509z" />
    <glyph glyph-name="Omega" unicode="&#x3a9;" horiz-adv-x="808" 
d="M465 0v65q78 45 140 123q74 92 74 207q0 77 -34.5 143.5t-98 106t-140.5 39.5q-116 0 -196 -86.5t-80 -211.5q0 -151 133 -267q35 -31 75 -54v-65h-237l-48 140h10q28 -50 51 -67.5t66 -17.5h128q-94 32 -150 93q-98 109 -98 249q0 84 43.5 157t124.5 116.5t177 43.5
t174.5 -43.5t123.5 -118.5t45 -166q0 -80 -65 -182q-30 -48 -80 -89t-107 -60h130q43 0 66 17.5t51 67.5h10l-48 -140h-240z" />
    <glyph glyph-name="mu" unicode="&#x3bc;" horiz-adv-x="931" 
d="M900 10h16v-10h-217v9h15q17 0 29 13t10 30l-45 503l-210 -467q-28 -61 -34 -102h-10l-256 555l-43 -489q-2 -16 10 -29.5t29 -13.5h15v-9h-194v10h16q28 0 48.5 17t24.5 46l75 641h10l279 -603l273 603h9l77 -641q4 -29 25 -46t48 -17z" />
    <glyph glyph-name="pi" unicode="&#x3c0;" horiz-adv-x="703" 
d="M463 10q23 0 39 16t17 38v452q-1 22 -16.5 38t-37.5 16h-226q-22 0 -37.5 -15.5t-16.5 -37.5v-454q1 -22 17 -37.5t39 -15.5h10l1 -10h-197v10h11q23 0 39 16t16 38v472q0 31 -28 47q-12 7 -27 7h-11v10h594v-10h-11q-22 0 -38 -15.5t-17 -37.5v-474q1 -31 28 -46
q12 -7 27 -7h11v-10h-197l1 10h10z" />
    <glyph glyph-name="Wgrave" unicode="&#x1e80;" horiz-adv-x="954" 
d="M1191 944h13v-10q-47 -2 -89 -22t-71 -47.5t-54 -66.5q-40 -62 -68 -142l-192 -557q-20 -63 -22 -111h-9l-204 571l-161 -504q-36 -113 -116 -176q-58 -47 -130 -47q-25 0 -53 6l2 10q15 -3 34.5 -3t52 12t64.5 43q65 63 100 158l-202 571q-12 30 -37 45.5t-51 15.5h-8
v10h222v-10h-9q-21 0 -31.5 -13.5t-10.5 -25.5t3 -22l152 -487l186 574l9 -1l198 -554l148 495q26 87 80 157q100 131 254 131zM514 771l-7 -7q-81 38 -161 85q15 28 41 53q63 -61 127 -131z" />
    <glyph glyph-name="wgrave" unicode="&#x1e81;" horiz-adv-x="982" 
d="M514 781l-7 -7q-80 38 -161 85q15 28 41 53q64 -61 127 -131zM992 690h-8q-26 0 -51.5 -15.5t-36.5 -46.5l-166 -529q-20 -63 -22 -111h-9l-204 572l-152 -461q-19 -62 -21 -111h-9l-227 641q-12 30 -37 45.5t-51 15.5h-8v10h222v-10h-9q-21 0 -31.5 -13.5t-10.5 -25.5
t3 -22l152 -487l186 574l9 -1l197 -553l134 468q3 11 3 22.5t-10 24.5t-31 13h-9v10h197v-10z" />
    <glyph glyph-name="Wacute" unicode="&#x1e82;" horiz-adv-x="954" 
d="M1191 944h13v-10q-47 -2 -89 -22t-71 -47.5t-54 -66.5q-40 -62 -68 -142l-192 -557q-20 -63 -22 -111h-9l-204 571l-161 -504q-36 -113 -116 -176q-58 -47 -130 -47q-25 0 -53 6l2 10q15 -3 34.5 -3t52 12t64.5 43q65 63 100 158l-202 571q-12 30 -37 45.5t-51 15.5h-8
v10h222v-10h-9q-21 0 -31.5 -13.5t-10.5 -25.5t3 -22l152 -487l186 574l9 -1l198 -554l148 495q26 87 80 157q100 131 254 131zM507 764l-7 7q76 82 127 131q27 -27 41 -53q-65 -37 -161 -85z" />
    <glyph glyph-name="wacute" unicode="&#x1e83;" horiz-adv-x="982" 
d="M507 774l-7 7q76 82 127 131q27 -27 41 -53q-64 -37 -161 -85zM992 690h-8q-26 0 -51.5 -15.5t-36.5 -46.5l-166 -529q-20 -63 -22 -111h-9l-204 572l-152 -461q-19 -62 -21 -111h-9l-227 641q-12 30 -37 45.5t-51 15.5h-8v10h222v-10h-9q-21 0 -31.5 -13.5t-10.5 -25.5
t3 -22l152 -487l186 574l9 -1l197 -553l134 468q3 11 3 22.5t-10 24.5t-31 13h-9v10h197v-10z" />
    <glyph glyph-name="Wdieresis" unicode="&#x1e84;" horiz-adv-x="954" 
d="M1191 944h13v-10q-47 -2 -89 -22t-71 -47.5t-54 -66.5q-40 -62 -68 -142l-192 -557q-20 -63 -22 -111h-9l-204 571l-161 -504q-36 -113 -116 -176q-58 -47 -130 -47q-25 0 -53 6l2 10q15 -3 34.5 -3t52 12t64.5 43q65 63 100 158l-202 571q-12 30 -37 45.5t-51 15.5h-8
v10h222v-10h-9q-21 0 -31.5 -13.5t-10.5 -25.5t3 -22l152 -487l186 574l9 -1l198 -554l148 495q26 87 80 157q100 131 254 131zM412.5 764q-16.5 0 -27.5 11.5t-11 27.5t11 27.5t27.5 11.5t28 -11.5t11.5 -27.5t-11.5 -27.5t-28 -11.5zM601 764q-16 0 -27.5 11.5t-11.5 27.5
t11.5 27.5t27.5 11.5t27.5 -11.5t11.5 -27.5t-11.5 -27.5t-27.5 -11.5z" />
    <glyph glyph-name="wdieresis" unicode="&#x1e85;" horiz-adv-x="982" 
d="M413 774q-16 0 -27.5 11.5t-11.5 27.5t11.5 27.5t27.5 11.5t27.5 -11.5t11.5 -27.5t-11.5 -27.5t-27.5 -11.5zM601.5 774q-16.5 0 -28 11.5t-11.5 27.5t11.5 27.5t28 11.5t27.5 -11.5t11 -27.5t-11 -27.5t-27.5 -11.5zM992 690h-8q-26 0 -51.5 -15.5t-36.5 -46.5
l-166 -529q-20 -63 -22 -111h-9l-204 572l-152 -461q-19 -62 -21 -111h-9l-227 641q-12 30 -37 45.5t-51 15.5h-8v10h222v-10h-9q-21 0 -31.5 -13.5t-10.5 -25.5t3 -22l152 -487l186 574l9 -1l197 -553l134 468q3 11 3 22.5t-10 24.5t-31 13h-9v10h197v-10z" />
    <glyph glyph-name="Ygrave" unicode="&#x1ef2;" horiz-adv-x="618" 
d="M338 771l-7 -7q-80 38 -161 85q15 28 41 53q64 -61 127 -131zM-40 757h25t49 -6.5t57.5 -17.5t52 -32.5t43.5 -40t36.5 -48.5t30 -51t25.5 -55q18 -43 29.5 -75.5t12.5 -36.5q4 -10 7 -18q3 7 12 31.5t16.5 43.5t22 54t25.5 55t28.5 50.5t33.5 48.5t38.5 39t44.5 32
q54 27 110 27v-10q-56 0 -114.5 -59t-100 -142.5t-68 -173t-26.5 -152.5v-147q0 -36 31 -54q15 -9 33 -9h12v-10h-218v10h13q25 0 44 18t20 44v149q0 67 -28 157t-72 172t-105 139.5t-120 57.5v10z" />
    <glyph glyph-name="ygrave" unicode="&#x1ef3;" horiz-adv-x="661" 
d="M350 771l-7 -7q-80 38 -160 85q14 28 41 53q63 -61 126 -131zM672 690h-14q-30 0 -56.5 -16.5t-44.5 -41.5l-197 -320v-239q0 -26 18.5 -44.5t45.5 -18.5h12v-10h-218v10h13q26 0 44.5 18t19.5 44v241l-191 319q-15 24 -42.5 41t-57.5 17h-14v10h246v-10h-13
q-22 0 -34 -20q-6 -11 -6 -21.5t5 -20.5l150 -280l160 281q5 9 5 19.5t-7 21.5q-12 20 -34 20h-12v10h222v-10z" />
    <glyph glyph-name="endash" unicode="&#x2013;" horiz-adv-x="500" 
d="M0 271v40h500v-40h-500z" />
    <glyph glyph-name="emdash" unicode="&#x2014;" horiz-adv-x="800" 
d="M0 271v40h800v-40h-800z" />
    <glyph glyph-name="quoteleft" unicode="&#x2018;" horiz-adv-x="194" 
d="M100 592q-8 0 -22 6.5t-24 30t-10 50.5t18 54q31 49 85 51l3 -9q-23 -8 -35.5 -21t-13.5 -28q-3 -31 19 -56q29 -31 18.5 -54.5t-38.5 -23.5z" />
    <glyph glyph-name="quoteright" unicode="&#x2019;" horiz-adv-x="189" 
d="M45 606q28 9 38 26t10 26q0 25 -21 49q-16 18 -18 25q-3 15 3 28q9 20 34 20q31 0 42.5 -28.5t11.5 -54.5t-16 -52q-30 -46 -82 -47z" />
    <glyph glyph-name="quotesinglbase" unicode="&#x201a;" horiz-adv-x="194" 
d="M45 -89q30 10 40 27.5t10 26.5q0 28 -21 52q-17 19 -19 27q-4 15 2 29q10 21 36 21q33 0 45.5 -30t12.5 -57t-18 -54q-31 -48 -85 -50z" />
    <glyph glyph-name="quotedblleft" unicode="&#x201c;" horiz-adv-x="334" 
d="M98 592q-9 0 -23 6.5t-23.5 30t-9.5 50.5t17 54q31 49 86 51l2 -9q-23 -8 -35 -21t-14 -28q-3 -31 20 -56q28 -31 18 -54.5t-38 -23.5zM287 775q-30 -10 -40 -27.5t-10 -26.5q0 -28 21 -51q28 -31 18 -55q-10 -23 -37 -23q-32 0 -44.5 30t-12.5 57t17 54q31 49 86 51z
" />
    <glyph glyph-name="quotedblright" unicode="&#x201d;" horiz-adv-x="334" 
d="M196 758q10 22 36 22q8 0 21.5 -6t23 -28.5t9.5 -48.5t-17 -52q-30 -46 -82 -47l-2 8q22 7 33.5 20t13.5 26q2 28 -13 47q-2 2 -7 8l-7.5 9t-6 8.5t-4.5 10.5q-3 12 2 23zM45 606q28 9 38 26t10 26q0 25 -21 49q-16 18 -18 25q-3 15 3 28q9 20 34 20q31 0 42.5 -28.5
t11.5 -54.5t-16 -52q-30 -46 -82 -47z" />
    <glyph glyph-name="quotedblbase" unicode="&#x201e;" horiz-adv-x="331" 
d="M54 63q0 6 4 14.5t15.5 14.5t18 6h13.5t19.5 -9t22 -31t9.5 -50.5t-18 -57.5q-33 -50 -90 -52l-3 9q24 8 37 22t14 29q4 33 -20 59q-25 28 -22 46zM189 75q11 24 40 24q9 0 23.5 -7t24.5 -32t10 -44q0 -59 -42 -93q-29 -24 -65 -25l-3 9q24 8 37 22t15 29q2 31 -14 51
q-2 3 -8 9.5t-8.5 9.5t-6.5 9.5t-5 11.5q-3 13 2 26z" />
    <glyph glyph-name="dagger" unicode="&#x2020;" horiz-adv-x="517" 
d="M478 438l-14 -37l-156 18l-45 15l16 -43l12 -236l-27 -335h-10l-28 335l13 236l15 43l-45 -16l-155 -17l-14 37l14 38l155 -18l45 -14l-15 41l-18 215l39 14l36 -14l-17 -215l-15 -41l44 15l156 17z" />
    <glyph glyph-name="daggerdbl" unicode="&#x2021;" horiz-adv-x="518" 
d="M465 132l14 -37l-14 -38l-155 18l-45 15l15 -42l17 -215l-38 -14l-37 14l18 215l15 42l-45 -15l-155 -18l-14 38l14 37l155 -17l45 -15l-15 42l-18 125l17 124l15 43l-45 -16l-155 -17l-14 37l14 38l155 -18l45 -14l-15 41l-18 215l39 14l36 -14l-17 -215l-15 -41l44 15
l156 17l14 -38l-14 -37l-156 18l-45 15l16 -43l18 -124l-17 -125l-15 -42l45 15z" />
    <glyph glyph-name="bullet" unicode="&#x2022;" horiz-adv-x="335" 
d="M70 325q0 7 8.5 31.5t20.5 37t37 21t32 8.5t32 -8.5t37 -20.5t20.5 -37t8.5 -32t-6.5 -26t-14.5 -31.5t-20.5 -20.5t-31 -14t-25.5 -6l-14 2q-43 15 -55 27t-20.5 37t-8.5 32zM218.5 306.5q4.5 14.5 4.5 18.5t-4.5 18t-11.5 21t-21 11.5t-18 4.5t-18 -4.5t-21 -11.5
t-11.5 -21t-4.5 -18t4.5 -18t11.5 -21t21 -11.5t18 -4.5q27 4 36.5 13t14 23.5z" />
    <glyph glyph-name="ellipsis" unicode="&#x2026;" horiz-adv-x="569" 
d="M90 -4q-19 0 -32 13t-13 32t13 32t32 13t32 -13t13 -32t-13 -32t-32 -13zM290 -4q-19 0 -32 13t-13 32t13 32t32 13t32 -13t13 -32t-13 -32t-32 -13zM480 -4q-19 0 -32 13t-13 32t13 32t32 13t32 -13t13 -32t-13 -32t-32 -13z" />
    <glyph glyph-name="perthousand" unicode="&#x2030;" horiz-adv-x="1015" 
d="M311 660q16 -31 16 -64q0 -120 -66 -188q-46 -47 -107 -47t-90 47q-20 32 -20 68q0 121 64 190q45 48 104 48q23 0 41.5 -5t57.5 -28q44 -24 70.5 -24t49 7.5t54 25.5t34.5 19l22 -9l-373 -711l-25 11l356 676q-3 -1 -16.5 -8.5t-19 -10t-18.5 -8t-22 -7.5
q-25 -6 -49.5 -4t-62.5 22zM269 537q6 34 6 63t-8 52q-15 42 -54 42q-60 0 -94 -91q-23 -62 -23 -110t8 -70q15 -42 54 -42t68.5 42t42.5 114zM531 339q61 0 90 -48q20 -32 20 -67q0 -123 -66 -190q-46 -48 -107 -48t-90 48q-20 32 -20 67q0 123 65 190q47 48 108 48z
M861 339q61 0 90 -48q20 -32 20 -67q0 -123 -66 -190q-46 -48 -107 -48t-90 48q-20 32 -20 67t7.5 75t31.5 81q50 82 134 82zM583 162q6 34 6 63.5t-8 51.5q-15 42 -54 42t-68.5 -42t-42.5 -115q-6 -33 -6 -62.5t8 -51.5q15 -42 54 -42t68.5 42t42.5 114zM913 162
q6 34 6 63.5t-8 51.5q-15 42 -54 42t-68.5 -42t-42.5 -115q-6 -33 -6 -62.5t8 -51.5q15 -42 54 -42t68.5 42t42.5 114z" />
    <glyph glyph-name="guilsinglleft" unicode="&#x2039;" horiz-adv-x="263" 
d="M223 485q-44 -112 -118 -193q74 -84 119 -197l-9 -5q-76 119 -175 202q56 46 96.5 90t78.5 108z" />
    <glyph glyph-name="guilsinglright" unicode="&#x203a;" horiz-adv-x="263" 
d="M40 95q44 113 119 197q-74 81 -118 193l8 5q38 -64 78.5 -108t96.5 -90q-99 -83 -175 -202z" />
    <glyph glyph-name="fraction" unicode="&#x2044;" horiz-adv-x="542" 
d="M498 714l24 -17l-477 -711l-25 16z" />
    <glyph glyph-name="Euro" unicode="&#x20ac;" horiz-adv-x="733" 
d="M463 -13q-136 0 -237 84t-124 213h-112l11 30h96q-1 18 -1 35.5t1 34.5h-107l11 30h100q22 130 123.5 215t238.5 85q170 0 219 -59l-32 -96h-10q2 13 2 26.5t-7.5 32.5t-26 32t-45.5 21q-44 13 -100 13q-108 0 -188 -76.5t-99 -193.5h425l-11 -30h-418q-1 -17 -1 -34.5
t1 -35.5h394l-10 -30h-380q21 -117 100.5 -192t180 -75t152 32.5t64.5 104.5h10l-1 -105q-30 -31 -90.5 -46.5t-128.5 -15.5z" />
    <glyph glyph-name="trademark" unicode="&#x2122;" horiz-adv-x="446" 
d="M173 664h-3v5q0 7 -4.5 11.5t-11.5 5.5h-47v-163q0 -7 5 -12t13 -5h3v-3h-73v3h3q7 0 12.5 5t5.5 12v163h-47q-7 -1 -11.5 -5.5t-4.5 -11.5v-5h-3v41q12 -5 34 -5h95q22 0 34 5v-41zM432 506h5v-3h-71v3h4q5 0 8.5 3.5t2.5 8.5l-18 121l-53 -111q-8 -17 -10 -29h-2
l-69 134l-9 -115q0 -5 3.5 -8.5t7.5 -3.5h5v-3h-62v3h5q18 0 20 17l21 181h3l83 -156l72 156h3l31 -181q4 -17 20 -17z" />
    <glyph glyph-name="partialdiff" unicode="&#x2202;" horiz-adv-x="566" 
d="M279 433q80 0 156 -65v8q0 146 -63 228q-48 62 -139 62t-154 -89l-9 7q38 75 92 107q41 25 97 25q92 0 153 -63q51 -54 73 -129.5t22 -152.5q0 -126 -34 -212t-86 -127q-58 -46 -141 -46q-136 0 -175 119q-11 35 -11 74.5t11 80t35 74.5q51 74 138 95q17 4 35 4zM435 354
q-74 41 -135 41q-54 0 -95 -38q-47 -43 -67 -126q-8 -35 -8 -62q0 -87 48 -128q30 -26 71 -26q74 0 124.5 90.5t60.5 227.5z" />
    <glyph glyph-name="product" unicode="&#x220f;" horiz-adv-x="763" 
d="M523 -190q23 0 39 15.5t17 38.5v752q-1 22 -16.5 38t-37.5 16h-286q-22 0 -37.5 -15.5t-16.5 -37.5v-754q1 -22 17 -37.5t39 -15.5h10l1 -10h-197v10h11q31 0 48 27q7 12 7 27v772q0 31 -28 47q-12 7 -27 7h-11v10h654v-10h-11q-22 0 -38 -15.5t-17 -37.5v-774
q0 -22 16.5 -37.5t38.5 -15.5h11v-10h-197l1 10h10z" />
    <glyph glyph-name="summation" unicode="&#x2211;" horiz-adv-x="635" 
d="M40 -180v10l264 422l-258 438v10h402q44 0 78 7t44 11v-126l-10 1v17q0 25 -17 42t-41 18h-370l228 -391l-245 -395h347q49 3 81.5 37t47.5 88h10l-33 -189h-528z" />
    <glyph glyph-name="minus" unicode="&#x2212;" horiz-adv-x="481" 
d="M40 287v45h402v-45h-402z" />
    <glyph glyph-name="radical" unicode="&#x221a;" horiz-adv-x="594" 
d="M25 400l-5 30l139 20l123 -441l262 834l30 -2l-307 -988l-160 559z" />
    <glyph glyph-name="infinity" unicode="&#x221e;" horiz-adv-x="593" 
d="M249.5 193q-41.5 -28 -91 -28t-84 37t-34.5 94t35 95t81.5 38t88 -27t72.5 -68q30 41 71.5 68t88 27t81.5 -38t35 -95t-34.5 -94t-84.5 -37t-91.5 28.5t-66.5 69.5q-25 -42 -66.5 -70zM108 234q23 -26 56 -26t67 26t58 64q-66 88 -127 88q-31 0 -54 -26t-23 -63t23 -63z
M402.5 233q33.5 -25 67 -25t56 26t22.5 56.5t-10.5 51t-28 32.5t-38.5 12q-61 0 -127 -88q25 -40 58.5 -65z" />
    <glyph glyph-name="integral" unicode="&#x222b;" horiz-adv-x="440" 
d="M224 721q31 72 110 72q13 0 36 -7t32 -21.5t9 -27t-11 -25t-27.5 -12.5t-24 7.5t-11.5 14t-7 11.5l-6 10q-8 11 -20 11q-31 0 -35 -90q-30 -590 -33.5 -642.5t-10 -82t-19.5 -59.5q-30 -72 -103 -72q-29 0 -49 10q-34 17 -34 43q0 15 11 27.5t27.5 12.5t24 -8t12.5 -16.5
t9 -14.5q8 -15 23 -15q30 0 35 90q30 590 33 643q7 86 29 141z" />
    <glyph glyph-name="approxequal" unicode="&#x2248;" horiz-adv-x="481" 
d="M141 435q37 0 97.5 -28.5t73 -31t22 -2.5t27 6.5t26.5 13t28 21.5l27 -25l-6.5 -6.5l-9 -9t-10.5 -10t-12 -10t-14 -9.5t-16 -8t-17 -5.5t-18 -2.5t-20 1q-34 6 -86 30.5t-68.5 27.5t-23 3.5t-13 -0.5t-10.5 -1.5t-10 -4t-8 -5t-8.5 -7t-8 -6.5t-8.5 -8l-8 -8l-27 24
q46 61 101 61zM141 265q30 0 66.5 -15.5t64.5 -28.5q38 -18 54.5 -18t34 6.5t26.5 13t28 21.5l27 -25l-6.5 -6.5l-9 -9t-10.5 -10t-12 -10t-14 -9.5t-16 -8t-16 -5.5t-13.5 -3.5t-9 1t-16.5 1q-27 5 -57 18t-57.5 25.5t-42 15t-20.5 3t-11 0t-10 -2t-8.5 -2.5t-8.5 -4
l-7.5 -4.5t-7.5 -6.5t-7 -6.5t-7.5 -7.5t-7.5 -7l-27 24q46 61 101 61z" />
    <glyph glyph-name="notequal" unicode="&#x2260;" horiz-adv-x="481" 
d="M442 364h-140l-63 -130h203v-45h-225l-59 -122l-41 18l50 104h-127v45h149l63 130h-212v45h234l54 110l40 -19l-44 -91h118v-45z" />
    <glyph glyph-name="lessequal" unicode="&#x2264;" horiz-adv-x="481" 
d="M442 589v-48l-343 -165l343 -166v-48l-402 191v45zM40 43v45h402v-45h-402z" />
    <glyph glyph-name="greaterequal" unicode="&#x2265;" horiz-adv-x="481" 
d="M40 589l402 -191v-45l-402 -191v48l342 166l-342 165v48zM40 43v45h402v-45h-402z" />
    <glyph glyph-name="lozenge" unicode="&#x25ca;" horiz-adv-x="530" 
d="M481 350l-222 -364l-209 364l209 364zM93 350l166 -295l179 295l-179 295z" />
    <glyph glyph-name="fi" unicode="&#xfb01;" horiz-adv-x="879" 
d="M472 689v-84h-10v15q0 20 -14 34.5t-35 14.5h-211v-309h169q20 1 34 15t14 34v15h10v-158h-10v15q0 20 -13.5 34t-33.5 15h-170v-257q0 -26 19 -44.5t45 -18.5h13v-10h-219v10h13q26 0 44.5 18.5t19.5 44.5v560q0 24 -19.5 40.5t-44.5 16.5h-12l-1 10h293q31 0 67.5 6
t51.5 12v-29zM614 10q36 0 55 31q9 15 9 32v555q-1 26 -19.5 44t-44.5 18h-13v10h219v-10h-13q-26 0 -44.5 -18t-19.5 -44v-555q0 -26 19 -44.5t45 -18.5h13v-10h-219v10h13z" />
    <glyph glyph-name="fl" unicode="&#xfb02;" horiz-adv-x="1103" 
d="M472 689v-84h-10v15q0 20 -14 34.5t-35 14.5h-211v-309h169q20 1 34 15t14 34v15h10v-158h-10v15q0 20 -13.5 34t-33.5 15h-170v-257q0 -26 19 -44.5t45 -18.5h13v-10h-219v10h13q26 0 44.5 18.5t19.5 44.5v560q0 24 -19.5 40.5t-44.5 16.5h-12l-1 10h293q31 0 67.5 6
t51.5 12v-29zM614 10q26 0 44.5 18.5t19.5 44.5v554q-1 26 -19.5 44.5t-44.5 18.5h-13v10h219v-10h-13q-36 0 -55 -31q-9 -15 -9 -32v-596h143q74 0 113 33t65 98h10l-58 -162h-415v10h13z" />
    </font>
</defs>
</svg>
