<?xml version="1.0" standalone="no"?>
<!DOCTYPE svg PUBLIC "-//W3C//DTD SVG 1.1//EN" "http://www.w3.org/Graphics/SVG/1.1/DTD/svg11.dtd" >
<svg xmlns="http://www.w3.org/2000/svg" xmlns:xlink="http://www.w3.org/1999/xlink" version="1.1">
<metadata>
Created by FontForge 20170731 at Tue Jul 31 15:46:19 2007
 By Aleksey,,,
Copyright (c) Typographer Mediengestaltung, 2000. All rights reserved. Added to full character set by Dieter Steffmann.
</metadata>
<defs>
<font id="HoneyScript-Light" horiz-adv-x="234" >
  <font-face 
    font-family="Honey Script"
    font-weight="300"
    font-stretch="normal"
    units-per-em="1000"
    panose-1="2 0 5 6 2 0 0 2 0 3"
    ascent="800"
    descent="-200"
    x-height="358"
    cap-height="648"
    bbox="-263 -404 1139 919"
    underline-thickness="42"
    underline-position="-163"
    unicode-range="U+0020-FB02"
  />
<missing-glyph horiz-adv-x="500" 
d="M63 800h375v-800h-375v800zM375 63v675h-250v-675h250z" />
    <glyph glyph-name=".notdef" horiz-adv-x="500" 
d="M63 800h375v-800h-375v800zM375 63v675h-250v-675h250z" />
    <glyph glyph-name=".null" horiz-adv-x="0" 
 />
    <glyph glyph-name="nonmarkingreturn" horiz-adv-x="250" 
 />
    <glyph glyph-name="space" unicode=" " horiz-adv-x="210" 
 />
    <glyph glyph-name="exclam" unicode="!" horiz-adv-x="201" 
d="M176 634q-50 -138 -50 -398q0 -44 1.5 -75t5.5 -51q-14 -8 -20 2q-19 34 -24 67q-3 22 -3 73q0 21 2.5 67.5t7.5 118.5q11 154 18 212q4 10 24 10q18 0 38 -26zM148 17q0 -9 -8 -21t-17 -12q-14 0 -25.5 9.5t-11.5 23.5q0 9 12 30q13 21 20 21q16 0 23 -19q7 -14 7 -32z
" />
    <glyph glyph-name="quotedbl" unicode="&#x22;" horiz-adv-x="248" 
d="M200 652q-8 -43 -28 -86q-11 -20 -21 -39.5t-20 -39.5q-10 -22 -20 -22q-12 0 -12 12q0 6 18 44l34 72q4 14 12 33t19 44q19 -14 18 -18zM147 666q-3 -25 -46 -115q-30 -65 -39 -65q-14 0 -14 14t52 102q4 14 11 34t18 48q19 -12 18 -18z" />
    <glyph glyph-name="numbersign" unicode="#" horiz-adv-x="454" 
d="M426 498q0 -21 -21 -25l-101 -21l-11 -87l111 18q18 0 18 -9q0 -7 -7 -15.5t-14 -9.5l-114 -20l-9 -76q1 -4 0.5 -10.5t-1.5 -14.5q-12 -24 -34 -24q-7 0 -7 6l15 111l-88 -15l-13 -89q1 -4 0.5 -10.5t-1.5 -14.5q-8 -18 -34 -18q-11 0 -13 8l18 116l-74 -17
q-14 -8 -28 -8q-18 0 -18 18q0 19 20 27l107 20l13 77l-94 -20q-14 -8 -28 -8q-18 0 -18 18q0 19 20 27l126 27l14 94q4 26 22 25q15 -2 15 -10q0 -5 -3 -30.5t-8 -71.5l86 17l14 100q4 30 21 25q10 -3 10 -24q0 -10 -9 -94l100 17q18 0 18 -9zM181 426l-13 -82l88 15l13 85
z" />
    <glyph glyph-name="dollar" unicode="$" horiz-adv-x="266" 
d="M245 133q0 -64 -41 -90q-16 -5 -31 -11l-30 -12q3 -15 3 -33q0 -26 -6 -60q-21 -5 -22 26l-1.5 19.5t-3.5 59.5l-53 34q-33 28 -58 96q18 7 54 -41q42 -54 87 -54q25 0 40 19t15 44q0 45 -42 83q-75 66 -79 73q-42 54 -42 140q0 127 80 135q0 51 11 90q17 0 18 -31
q-1 -16 -1 -32v-32q46 -24 63 -48q22 -28 22 -75q0 -102 -30 -102q-15 0 -19 51l-2 32l-2 32q-10 85 -51 85q-26 0 -40 -44q-11 -33 -11 -64q0 -80 40 -117l113 -109q19 -18 19 -64z" />
    <glyph glyph-name="ampersand" unicode="&#x26;" horiz-adv-x="595" 
d="M567 229q0 -6 -9 -16h-69q-19 0 -59 -55q-46 -63 -61 -74q19 -20 57 -63q13 -15 42 -28q0 -5 -9.5 -9.5t-15.5 -4.5q-14 0 -32 20l-62 66q-95 -77 -164 -77q-56 0 -96 38q-39 37 -39 95q0 66 45 129l93 108q-30 91 -30 156q0 52 22 97q27 57 72 57q46 0 81 -38
q34 -37 34 -84q0 -46 -51 -110q-3 -4 -24 -27t-61 -68q3 -10 12.5 -34t26.5 -64l213 1q78 -2 84 -15zM337 565q0 14 -5.5 28t-15 25.5t-22 19t-26.5 7.5q-37 0 -60 -59q-16 -42 -16 -90q0 -43 25 -106q12 9 51 53q69 76 69 122zM353 211h-22t-22 -1h-21q11 -19 27 -41
t36 -48q9 0 35 38q25 38 25 52h-58zM323 91q-4 14 -69 118q-14 0 -39 3q-29 3 -39 3q0 5 0.5 8.5t1.5 7.5q17 1 58 12q-9 13 -33 78q-126 -83 -126 -226q0 -31 29 -57q29 -25 63 -25q50 0 105 34q49 30 49 44z" />
    <glyph glyph-name="quotesingle" unicode="'" horiz-adv-x="0" 
d="M10 645q0 -21 -38 -100q-17 -45 -27 -45q-15 0 -16 16q20 43 57 163q24 -17 24 -34z" />
    <glyph glyph-name="parenleft" unicode="(" horiz-adv-x="217" 
d="M225 -109q-12 -5 -21 -5q-61 0 -102 152q-33 124 -33 246q0 194 48 304q5 18 11 36t12 35q20 53 39 53q4 0 10 -2.5t11.5 -6t9.5 -7.5t4 -7l-24 -26q-26 -41 -54 -135q-35 -120 -35 -219q0 -48 9 -127q11 -88 22 -123q38 -117 58 -141q6 -8 17.5 -14.5t17.5 -12.5z" />
    <glyph glyph-name="parenright" unicode=")" horiz-adv-x="175" 
d="M128 249q0 -98 -10 -144q-5 -64 -22 -126q-27 -97 -65 -97q-14 0 -18 12q5 4 10.5 9.5l12.5 12.5q59 113 59 333q0 183 -22 258q-41 142 -49 155q-15 27 -15 36q0 14 20 14q30 0 38 -20l36 -189q25 -124 25 -254z" />
    <glyph glyph-name="asterisk" unicode="*" horiz-adv-x="217" 
d="M154 599q-3 -10 -7 -14q-17 0 -48 -7q1 -5 16 -26l14 -20q0 -7 -12 -7q-10 0 -38 46q-17 -33 -36 -46q-6 7 -6 12q0 2 5 14.5t6 17.5q-4 -1 -18.5 -5t-18.5 -4q-11 0 -11 9q0 8 24 16l36 12q-7 12 -21 50q4 6 9 6q4 0 33 -41q14 24 31 42q12 -12 12 -16q0 -3 -12 -18
l-9 -12t-4 -5q7 1 13.5 1.5t11.5 0.5q19 0 30 -6z" />
    <glyph glyph-name="plus" unicode="+" horiz-adv-x="378" 
d="M369 164q-30 -2 -70 -10t-91 -22v-64q0 -26 11 -62q-1 -4 -6 -4q-15 0 -25 16q-8 14 -8 29q0 11 3 23q0 9 -1.5 25.5t-1.5 25.5q-14 -2 -25 -3.5t-21 -1.5q-38 0 -66 36q-26 34 -26 72q0 34 19 59q21 29 53 29q53 0 82 -81q7 36 21 85q3 9 18 9q14 0 14 -11q0 -3 -2.5 -8
l-5.5 -11t-5.5 -11.5t-2.5 -8.5q-1 -6 -4.5 -22.5t-9.5 -42.5q-12 -50 -12 -56q18 2 60 16q43 15 58 15q16 0 40 -18zM185 169q0 32 -17 69q-23 48 -62 48q-19 0 -31 -17.5t-12 -37.5q0 -37 26.5 -61t63.5 -24q32 0 32 23z" />
    <glyph glyph-name="comma" unicode="," horiz-adv-x="154" 
d="M58 33q0 -6 -27 -52q-34 -64 -44 -64q-18 0 -18 14q0 4 35 66q5 11 11.5 27t16.5 37q26 -12 26 -28z" />
    <glyph glyph-name="hyphen" unicode="-" horiz-adv-x="293" 
d="M265 210q0 -10 -13 -18.5t-25 -10.5l-58 -2t-58 -3q-7 -1 -18 -1.5t-25 -2.5q-19 -1 -19 6q0 18 22 22l52 5q13 1 37 2t60 3q5 1 12 1.5t17 2.5q16 3 16 -4z" />
    <glyph glyph-name="period" unicode="." horiz-adv-x="126" 
d="M87 29q0 -38 -30 -38t-30 28q0 12 9.5 23.5t20.5 11.5q30 0 30 -25z" />
    <glyph glyph-name="slash" unicode="/" horiz-adv-x="390" 
d="M361 650q6 0 15.5 -7.5t9.5 -13.5q0 -12 -41 -56q-37 -38 -84 -108t-105 -172q-119 -210 -131 -293q-2 -9 -10 -9t-13.5 8.5t-5.5 17.5q18 79 120 262q41 73 77 132.5t68 106.5l51 74q39 54 49 58z" />
    <glyph glyph-name="zero" unicode="0" horiz-adv-x="448" 
d="M385 344q0 -107 -50 -215q-62 -129 -159 -129q-50 0 -97 29q-45 29 -62 76q-17 45 -17 133q0 114 39 242q52 171 140 171q24 0 82 -32l73 -41q19 -7 36 -109q15 -86 15 -125zM346 383q0 86 -29 147q-38 78 -115 78q-67 0 -113 -171q-36 -135 -36 -228q0 -67 23 -116
q30 -63 91 -63q94 0 144 138q35 102 35 215z" />
    <glyph glyph-name="one" unicode="1" horiz-adv-x="168" 
d="M114 577q0 -14 -7 -34q-8 -24 -9 -34q-17 -138 -26 -242t-9 -176q0 -32 1.5 -59t5.5 -47q0 -6 -14 -6q-46 0 -46 53q0 29 4 78.5t12 121.5q15 134 12 173q-21 16 -21 32q0 27 16 78q8 29 13 49.5t6 33.5q12 4 26 4q36 0 36 -25z" />
    <glyph glyph-name="two" unicode="2" horiz-adv-x="402" 
d="M373 17q0 -22 -18 -22q10 0 9 0.5t-9.5 1t-23.5 1.5t-33 1q-20 1 -36 1h-29q-20 0 -47.5 -3.5t-62.5 -10.5q-69 -15 -95 -15q-45 0 -45 38q0 7 26 24q17 10 28 18t16 13q41 46 74.5 98t61.5 110q64 131 64 238q0 40 -28 64t-70 24q-33 0 -45.5 -28.5t-24.5 -94.5
q-9 -47 -13.5 -71.5t-5.5 -26.5q-14 -60 -38 -60q-25 0 -25 35q0 17 11 64q5 20 12.5 44.5t17.5 52.5q23 65 41 91q16 24 51 24q67 0 120 -40q60 -44 60 -108q0 -94 -87 -238q-35 -58 -73.5 -109.5t-81.5 -98.5q78 3 150 3q12 0 33.5 -1.5t52.5 -5.5q63 -8 63 -13z" />
    <glyph glyph-name="three" unicode="3" horiz-adv-x="407" 
d="M345 177q0 -91 -51 -154q-56 -66 -144 -66q-62 0 -123 49q-51 43 -51 65q0 38 16 39q7 0 11 -4q5 -5 12.5 -16.5t17.5 -30.5q19 -37 29 -45q30 -27 81 -27q60 0 105 66q40 61 40 124q0 38 -14 71q-20 42 -53 42l-97 -23q-15 4 -15 21q0 18 15 33t33 15q5 0 10.5 -0.5
t13.5 -1.5q13 -1 20 0q30 24 47 80q14 48 14 94q0 92 -75 92q-49 0 -68 -28q-15 -23 -15 -75q0 -166 -49 -166q-15 0 -24 20q-8 18 -8 33q0 56 39 154q18 45 37 64q26 26 67 26q61 0 104 -29q48 -33 48 -93q0 -90 -90 -187q56 -26 83 -53q34 -35 34 -89z" />
    <glyph glyph-name="four" unicode="4" horiz-adv-x="467" 
d="M424 198q0 -22 -50 -22h-15q-9 0 -25 1q-30 1 -48 0q-3 -17 -4.5 -36t-2.5 -40q-1 -26 -1 -41q0 -14 -1 -19q-2 -18 10 -49q13 -32 13 -28q0 -7 -27 -7q-37 0 -37 75q0 10 0.5 23.5t1.5 32.5t1.5 33t0.5 24t-0.5 18.5t-1.5 15.5q-46 3 -104 -10q-42 -9 -69 -14t-38 -6
q-39 49 -39 65q0 12 35 65q25 37 43.5 67.5t31.5 53.5q34 63 97 155q8 11 15.5 23t15.5 24q22 31 39 33q18 -2 45 -21q27 -20 27 -35q0 -8 -8 -38q-5 -16 -7 -26.5t-3 -15.5q-33 -245 -33 -282l113 -3q25 -1 25 -16zM260 570q-14 -8 -57 -72q-27 -40 -42.5 -62.5
t-19.5 -27.5q-32 -41 -65 -112q-29 -64 -29 -80q0 -14 28 -14q14 0 41 3q14 2 24 3t17 1t18 0.5t25 1.5q28 3 43 3q3 79 12 186q5 62 6 104.5t-1 65.5z" />
    <glyph glyph-name="five" unicode="5" horiz-adv-x="435" 
d="M371 172q0 -91 -59 -147q-59 -54 -151 -54q-47 0 -108 21q-77 24 -77 61q0 18 27 18q11 0 58 -35q46 -34 80 -34q80 0 131 59q48 55 48 137q0 53 -25 82q-29 33 -78 33q-42 0 -84 -21q-10 -5 -28.5 -16t-46.5 -30q-11 0 -24 18q-13 19 -13 31t1.5 30t5.5 42t5.5 42
t1.5 30v65q0 18 -1 5q1 45 12 68q4 9 139 23q94 9 122 9q37 0 43 -9q0 -10 -19 -23q-18 -12 -29 -14q-88 -8 -118 -12q-79 -11 -95 -27q-11 -81 -17 -131.5t-6 -72.5q6 2 20.5 6.5t37.5 12.5q35 13 51 13q80 0 138 -50q58 -49 58 -130z" />
    <glyph glyph-name="six" unicode="6" horiz-adv-x="423" 
d="M364 207q0 -82 -44 -143q-50 -66 -130 -64q-95 0 -144 64q-46 58 -46 154q0 103 48 258q58 192 136 192q24 0 72 -20t60 -37q22 -31 22 -78q0 -32 -17 -80q-31 0 -38 18q-5 12 -5 46q0 56 -7 76q-14 38 -52 38q-34 0 -64 -51q-7 -14 -18 -34t-26 -47q-37 -63 -52 -183
q76 78 143 78q73 0 119 -58q43 -53 43 -129zM316 223q0 57 -27 96q-30 43 -85 43q-78 0 -118 -55q-37 -49 -37 -128q0 -151 137 -151q59 0 97 71q33 60 33 124z" />
    <glyph glyph-name="seven" unicode="7" horiz-adv-x="340" 
d="M333 633q0 -14 -14 -31q-24 -29 -35 -48q-234 -401 -234 -516q0 -14 4 -21q-48 0 -48 22q0 62 113 311l113 249q0 13 -40 13q-14 0 -38 -2t-58 -6q-15 -2 -31.5 -6t-35.5 -11l-35 -14q-16 0 -16 23q0 30 41 41q8 2 32 5l64 8q58 7 103.5 10t77.5 3q11 0 37 -30z" />
    <glyph glyph-name="eight" unicode="8" horiz-adv-x="497" 
d="M432 619q0 -37 -37 -78q-32 -37 -63.5 -66.5t-62.5 -52.5q-44 -33 -44 -37q0 -3 1 -4q88 -55 125 -90q67 -64 67 -132q0 -74 -71 -124q-64 -44 -141 -44q-78 0 -139 45q-67 49 -67 125q0 59 47 124q14 20 37 45t55 56q-71 65 -71 122q0 62 43 118q46 61 105 61
q38 0 87 -43q55 -47 67 -52q28 21 36 50q1 6 1.5 12t1.5 13q23 0 23 -48zM342 562q-38 58 -47 68q-20 20 -54 20q-50 0 -92 -62q-35 -53 -35 -86q0 -25 19 -54q19 -33 43 -33q10 0 85 66q75 67 81 81zM368 184q2 92 -181 176q-152 -131 -153 -210q0 -52 52 -83
q44 -26 99 -26q70 0 123 36q60 40 60 107z" />
    <glyph glyph-name="nine" unicode="9" horiz-adv-x="408" 
d="M378 619q-12 -8 -17 -44l-32 -234q-10 -81 -13 -148t-1 -123q0 -9 19 -63q-4 -6 -9 -8q2 1 -12 1q-43 0 -44 106q0 23 3 70q3 46 3 69q0 5 -10 5q-14 0 -41 -7t-41 -7q-82 0 -130 39q-53 44 -53 123q0 73 56 168q63 105 131 105q17 0 120 -65q0 40 10 40q6 0 17 -6
q44 -8 44 -21zM304 553q0 9 -33 39q-38 35 -66 35q-57 0 -111 -106q-48 -95 -48 -159q-1 -91 123 -91q23 0 57 8q39 11 50 25z" />
    <glyph glyph-name="colon" unicode=":" horiz-adv-x="146" 
d="M110 236q0 -26 -27 -26q-12 0 -21 9t-9 21q0 8 4.5 18t11.5 10q41 -11 41 -32zM99 29q0 -28 -28 -28q-25 0 -25 28q0 10 7.5 18.5t17.5 8.5q28 0 28 -27z" />
    <glyph glyph-name="semicolon" unicode=";" horiz-adv-x="182" 
d="M120 224q0 -23 -28 -23q-32 0 -32 28q0 18 27 30q14 0 23.5 -10.5t9.5 -24.5zM104 18q0 -6 -36 -49q-44 -54 -56 -54q-11 0 -11 13q0 15 19 28q21 15 35 41q5 12 11 24l12 24q26 -11 26 -27z" />
    <glyph glyph-name="less" unicode="&#x3c;" horiz-adv-x="384" 
d="M321 434q5 -19 -34 -41q-108 -94 -241 -143q75 -41 201 -51q69 -6 70 -22q1 -12 -35 -12q-64 0 -124 12q-16 4 -45.5 11.5t-72.5 20.5q-44 20 -41 51q1 16 14 22q6 2 29 6q19 3 81 34q83 40 135 82q11 9 24 18t27 19q9 4 12 -7z" />
    <glyph glyph-name="equal" unicode="=" horiz-adv-x="384" 
d="M307 338q0 -11 -14 -20t-26 -11q-38 -1 -93 -2.5t-128 -5.5q-19 -1 -19 7q0 18 23 24q10 2 23 3t30 2q24 1 63 2t94 3q5 1 12.5 1.5t18.5 2.5q16 1 16 -6zM307 226q0 -11 -14 -20t-26 -11q-38 -1 -93 -2.5t-128 -5.5q-19 -1 -19 7q0 18 23 24q10 2 23 3t30 2q24 1 63 2
t94 3q5 1 12.5 1.5t18.5 2.5q16 1 16 -6z" />
    <glyph glyph-name="greater" unicode="&#x3e;" horiz-adv-x="384" 
d="M341 235q-3 -16 -18 -19q-5 -2 -29 0q-74 -4 -197 -56q-58 -24 -62 -23q-10 0 -8 12q2 14 44 28q25 13 66 30q86 35 158 48q-65 46 -207 87q-63 17 -58 34q1 9 34 6q85 -9 163 -47l80 -41q40 -27 34 -59z" />
    <glyph glyph-name="question" unicode="?" horiz-adv-x="391" 
d="M341 547q0 -56 -23 -100q-8 -16 -25 -38.5t-42 -51.5q-35 -42 -63.5 -77t-49.5 -64l-18 -63q0 -10 6 -19.5t6 -12.5q0 -9 -13 -9q-22 0 -22 56q0 57 55 131q17 22 42 55.5t59 78.5q55 76 55 144q0 71 -66 71q-67 0 -163 -117q-23 -28 -38.5 -49t-23.5 -36
q-26 -47 -26 -94v-10q0 -4 1 -9q-27 -6 -27 34q0 54 41 127q37 61 84 107q80 79 149 79q50 0 78 -43q24 -38 24 -90zM152 32q0 -16 -10 -29.5t-25 -13.5q-27 0 -27 29q0 13 7.5 26t19.5 13q35 0 35 -25z" />
    <glyph glyph-name="at" unicode="@" horiz-adv-x="546" 
d="M326 434q-4 46 -25 46q-17 0 -30 -48q-4 -11 -9 -29t-12 -41q-16 -61 -16 -151q0 -17 7 -32q9 -19 23 -19q21 13 42 77q20 60 20 89q0 16 6 46q6 31 6 46zM326 227q-25 -94 -67 -94q-60 0 -57 147q1 19 7 51t19 79q29 104 49 104q44 0 56 -23l18 -36l35 -12
q-29 -89 -32 -185q-1 -17 13 -44q15 -26 32 -26q16 0 27 11q28 28 44 82q14 50 14 93q0 80 -46 148q-52 76 -127 75q-66 -1 -128 -63q-116 -116 -117 -303q-1 -90 47 -152q52 -66 139 -68q74 -1 145 70q19 19 28 19q12 0 12 -17q0 -11 -4 -23q-74 -73 -167 -73
q-114 0 -187 72q-56 56 -57 160q-1 201 132 337q66 66 156 68t152 -81q56 -76 56 -168q0 -44 -14 -102q-9 -33 -19 -55t-23 -35.5t-28.5 -19t-35.5 -5.5q-23 0 -46 23q-17 20 -26 46z" />
    <glyph glyph-name="A" unicode="A" horiz-adv-x="676" 
d="M666 6q0 -10 -18 -10q-12 0 -35 5q-36 47 -76 225q-42 -6 -118 -9q-42 -2 -71 -3.5t-46 -3.5q-14 -23 -34.5 -58t-49.5 -81q-63 -96 -127 -96q-83 0 -117 72q5 7 8 8q3 2 8 0q4 -1 10 -1q0 -30 49 -30q75 0 129 57q31 34 78 125q-8 1 -14.5 1.5t-12.5 0.5
q-7 0 -18.5 -2.5t-17.5 -2.5q-24 0 -24 14q0 7 108 19q50 82 115 249q58 147 58 177q0 3 -2 7.5t-2 7.5q0 13 31 13q10 0 38 -17q28 -16 28 -26q0 -8 -2 -23.5t-2 -23.5q0 -137 42 -336q17 -79 32 -137t29 -95q4 -12 13 -17.5t11 -8.5zM518 331q-29 174 -33 225l-1.5 21
l-0.5 7q-5 18 -12 24q-9 -17 -26.5 -60t-43.5 -114q-26 -69 -46.5 -116t-36.5 -75l213 5q0 6 -13 83z" />
    <glyph glyph-name="B" unicode="B" horiz-adv-x="525" 
d="M550 567q0 -28 -28 -65q-24 -34 -52 -51q-16 -10 -54 -29t-99 -48q159 -29 159 -164q0 -74 -78 -156t-152 -82q-35 0 -98 22t-56 22q0 -28 -9 -28q-41 2 -41 100v42q1 29 1 40q0 12 0 6q0 103 3 197.5t10 184.5l5 64q-2 2 -44 0q-26 -2 -39 21q-5 10 82 20q0 42 18 42
q31 0 31 -32q106 20 229 20q71 0 133 -28q79 -36 79 -98zM504 585q0 72 -159 72q-14 0 -43.5 -3t-74.5 -8q-41 -5 -70 -9t-47 -8q-15 -122 -15 -279q69 4 258 71q45 16 95 67q56 56 56 97zM435 236q0 105 -164 105q-139 0 -173 -43q-13 -16 -13 -72v-28q0 -16 1 -38t1.5 -38
t0.5 -27v-22t-1 -21q8 -2 24.5 -9t39.5 -20q41 -22 56 -22q80 0 157 86q71 80 71 149z" />
    <glyph glyph-name="C" unicode="C" horiz-adv-x="427" 
d="M405 127q14 -2 14 -12q0 -5 -9 -27q-34 -44 -99 -73q-65 -27 -124 -27q-93 0 -143 68q-44 62 -44 157q0 110 43 245q52 165 129 215q19 13 58 13q55 0 107 -31q33 -19 44 -40q15 -27 15 -85q0 -35 -12 -99q-15 -80 -34 -80q-13 0 -21 20q-7 15 -7 30q0 27 17 92
q17 66 17 96q0 33 -42 53q-34 17 -70 17q-75 0 -136 -168q-57 -155 -57 -304q0 -168 124 -168q111 0 214 79l16 29v0z" />
    <glyph glyph-name="D" unicode="D" horiz-adv-x="548" 
d="M543 454q0 -63 -32 -176q-36 -124 -87 -205q-62 -98 -129 -98q-19 0 -38 14l-36 26q-13 7 -44 18v-20q3 -6 3 -11q0 -10 -13 -10q-29 0 -29 35q0 11 -1 26.5t-3 35.5q-3 42 -3 63q0 71 3.5 137.5t10.5 130.5l13 131q0 13 -1 18q-89 -33 -151 -74q-6 -5 -6 -15
q-1 -14 -3 -19q-7 -3 -13 5t-6 16q0 33 88 78l24.5 12t75.5 36q0 52 -8 57q0 12 26 12q44 0 44 -40q70 22 108 22q54 0 74 -7q29 -9 60 -41q19 -20 31.5 -35t17.5 -25q24 -41 24 -97zM495 475q0 86 -46 120q-41 29 -129 29q-70 0 -99 -25q-26 -81 -48 -517l46 -40
q32 -23 55 -23q81 0 153 159q68 153 68 297z" />
    <glyph glyph-name="E" unicode="E" horiz-adv-x="596" 
d="M587 107q0 -51 -124 -90q-99 -31 -168 -31q-110 0 -192 41q-103 52 -103 153q0 70 55 122q38 36 116 76q-49 17 -73 38q-29 27 -29 73q0 101 154 152q109 36 235 36q46 0 64 -7q35 -11 35 -46q0 -30 -12 -30q-12 11 -34 28q-17 9 -48 9q-109 0 -215 -30
q-151 -43 -151 -124q0 -35 51 -54q36 -13 80 -13q13 0 93 6q35 2 56.5 3.5t29.5 0.5q13 -9 12 -30q-2 -21 -16 -26q-23 14 -35 14q-87 0 -195 -44q-145 -60 -145 -158q0 -81 102 -118q73 -27 169 -27q38 0 97 10q67 10 93 24q66 34 66 42q0 2 -3 2v19q35 0 35 -21z" />
    <glyph glyph-name="F" unicode="F" horiz-adv-x="445" 
d="M594 643q0 -7 -13 -8q-8 -2 -33 0q-14 1 -24 1h-15q-16 0 -40.5 -1.5t-58.5 -5.5l-140 -14q-45 -170 -45 -283q5 1 15 1.5t24 0.5q19 0 46.5 -1t63.5 -3q1 -3 1 -7q0 -22 -71 -24q-77 -1 -82 -6q0 37 -3 -51q-1 -45 -1.5 -73t-0.5 -41q0 -101 12 -131q-11 -3 -18 -3
q-34 0 -34 64v176q0 6 0.5 15t1 18.5t1 18.5t0.5 15q-23 1 -51.5 3t-63.5 7q-2 1 -1 4l2 4q21 8 62 8h21q11 0 19 -1h11q7 96 24 282q-37 -4 -76 -8.5t-82 -9.5q-10 -2 -19 -8q-7 -5 -11 -7.5t-5 -3.5q-5 0 -22 23q-2 10 -2 12q0 19 37 23q16 1 40 3t56 4q94 10 176 15.5
t154 7.5q31 -2 55.5 -3.5t42.5 -0.5q47 2 47 -12z" />
    <glyph glyph-name="G" unicode="G" horiz-adv-x="525" 
d="M524 291q0 -10 -92 -25q-2 -16 -5 -36.5t-8 -46.5q-14 -74 -84 -131q-71 -57 -146 -57q-94 0 -143 58q-46 53 -46 150q0 192 113 380q28 46 48 63q28 24 74 24q26 0 125 -43q19 -8 38 -33q25 -31 25 -69q0 -138 -32 -138q-37 0 -37 72q0 16 3 48q3 31 3 48q0 31 -39 57
q-35 24 -68 24q-49 0 -101 -97q-101 -185 -101 -349t126 -164q71 0 140 60q69 61 69 131q0 35 -17 46q-201 0 -275 -25q0 25 33 33q175 35 314 35q83 0 83 -15z" />
    <glyph glyph-name="H" unicode="H" horiz-adv-x="526" 
d="M526 283q0 -8 -25 -15q-10 -3 -18 -4.5t-13 -2.5q-22 -2 -41 -3t-36 -2q0 -22 -3 -65q-1 -22 -1.5 -38t-0.5 -27q0 -84 35 -128q-25 -16 -44 -16q-8 0 -24 18q-15 17 -25.5 28t-17.5 17q-22 20 -49.5 42t-59.5 47q-89 68 -111 68q-2 -36 -3.5 -60.5t-1.5 -38.5
q0 -31 3 -57.5t8 -49.5q-36 -5 -44 14q-1 2 -7 53q-3 25 -3 58q0 31 3 69l3 38h-43q-29 2 -29 18q0 19 28 25q7 2 17.5 3.5t26.5 3.5q24 207 24 290q0 44 -6 67q38 -4 50.5 -17.5t12.5 -51.5q0 -23 -3.5 -57.5t-10.5 -81.5t-10.5 -82t-3.5 -58q13 -2 39 -2q27 0 67 1l147 4
q1 10 2.5 30t3.5 49l19 259q0 4 -2 12.5t-2 13.5q0 22 30 22q18 0 35 -11.5t17 -29.5q0 -10 -9 -35q-5 -15 -8.5 -24.5t-4.5 -13.5q-5 -26 -11 -65.5t-14 -94.5l-15 -110q34 -2 56 -3.5t33 -1.5q14 7 25 7q15 0 15 -11zM353 251q-12 2 -44 3t-86 1h-79q-21 0 -8 1
q-42 -2 -42 -17q0 -7 15 -14q13 -5 21 -9.5t13 -7.5q17 -11 43 -27.5t61 -38.5q67 -44 107 -108z" />
    <glyph glyph-name="I" unicode="I" horiz-adv-x="301" 
d="M325 637q-18 -8 -28.5 -12t-14.5 -5l-100 -17q-22 -70 -35 -231q-12 -144 -12 -264q0 -68 5 -83q-6 0 3.5 0.5t35.5 1.5q77 3 77 -11q-9 -10 -49 -19q-58 -14 -138 -14q-94 0 -95 13q0 9 53 15l71 8q0 6 -1 15t-2 19t-2 19.5t-1 15.5q0 10 3 78.5t8 199.5q9 222 6 234
q-61 0 -106 3q8 7 18 13.5t23 13.5q169 18 184 18h17t24 -1t24 -1h18q9 0 14 -9z" />
    <glyph glyph-name="J" unicode="J" horiz-adv-x="360" 
d="M325 630q0 23 -2 19t-6 -34q-8 -54 -15 -144q-4 -48 -6 -80t-2 -51v-36q0 -21 1 -50t1.5 -50.5t0.5 -35.5q0 -75 -9 -106q-17 -62 -71 -62q-51 0 -145 44q-101 50 -104 93q-2 21 23 21q14 0 43 -30q46 -51 55 -57q37 -30 75 -30q58 0 78 66q14 48 14 157q0 44 -0.5 91.5
t-1.5 100.5l-2 139q0 7 -5 20t-5 19q0 24 28 24q55 0 55 -28z" />
    <glyph glyph-name="K" unicode="K" horiz-adv-x="467" 
d="M490 612q-23 -41 -72 -87q-8 -8 -30.5 -27t-58.5 -50q-45 -38 -91.5 -72.5t-94.5 -66.5q-72 -47 -72 -49q0 -38 149 -118q141 -74 194 -80q8 -1 15 -1h16q22 -1 24 -11l-3.5 -4t-11.5 -12q-13 -16 -22 -16q-11 0 -89 32q-55 23 -123 56t-151 78v-79q0 -29 1 -39
q2 -44 15 -59q0 -9 -18 -9q-38 0 -40 86v61q1 23 1 38v24q-32 18 -45 39l7 23q8 3 19 9t26 14q0 15 2.5 47.5t7.5 83.5q5 46 6.5 79t0.5 53l-4 80q31 48 44 48q25 0 25 -32q0 26 -3 19.5t-8 -45.5q-5 -33 -10 -77t-10 -100t-8 -89.5t-3 -46.5q29 19 52 33.5t40 25.5
q91 61 153 117q114 102 146 165q9 0 16 -15t8 -26z" />
    <glyph glyph-name="L" unicode="L" horiz-adv-x="671" 
d="M702 -66q-10 -16 -39 -16q-46 0 -120 49q-76 50 -120 78t-57 35q-11 -23 -21.5 -38.5t-18.5 -23.5q-47 -45 -132 -45q-74 0 -141 62q-65 63 -65 137q0 10 5.5 21t13.5 19.5t18.5 14t21.5 5.5q71 0 162 -32q21 -8 54 -22t78 -36q16 63 16 181q-6 0 -17 -1.5t-22 -3.5
t-22 -3.5t-17 -1.5q-43 0 -43 15q0 8 11 19q11 -8 33 -8q48 0 82 17q27 162 33 186q40 159 93 159q46 0 100 -91q25 -42 26 -45q10 -21 10 -49q0 -26 -35 -64q-24 -27 -57 -49q-20 -13 -50 -28.5t-70 -32.5q-2 -26 -10 -83.5t-24 -147.5q35 -22 71 -46t73 -51q33 -24 56 -39
t36 -22q43 -22 88 -19zM571 538q0 33 -15 69q-20 44 -47 44q-52 0 -92 -274q72 26 106 56q48 40 48 105zM332 105q-140 97 -253 97q-48 0 -48 -32q0 -45 54 -102q61 -66 137 -66q22 0 42 8t35 21.5t24 32.5t9 41z" />
    <glyph glyph-name="M" unicode="M" horiz-adv-x="753" 
d="M752 -66q-11 -21 -21 -21q-57 0 -84 150q-18 97 -18 193q0 60 3 143q1 29 1.5 49.5t-0.5 34.5q-4 -9 -13 -38q-11 -40 -28 -98.5t-40 -137.5q-66 -209 -120 -209q-71 0 -104 211q-5 40 -12.5 99t-18.5 138q-11 -11 -53 -144q-48 -151 -91 -227q-67 -118 -151 -118
q-50 0 -84 45l7 5q35 -7 56 -10t26 -3q32 0 67 31q28 25 48 60q57 101 104 256q49 162 49 270q0 45 30 45q20 0 61 -30q-10 -24 -10 -140q0 -81 4.5 -151t14.5 -132q24 -154 66 -154q29 0 94 192q29 86 49 158.5t31 132.5q1 7 1 24t1 45q1 33 13 37q83 0 86 -26
q-14 -31 -29 -195q-7 -73 -10 -125.5t-3 -84.5q0 -254 78 -275z" />
    <glyph glyph-name="N" unicode="N" horiz-adv-x="534" 
d="M533 683q0 -3 -2 -9t-5 -13t-6 -13.5t-4 -9.5q-11 -45 -21 -115t-19 -166q-8 -92 -12.5 -168t-4.5 -138q0 -6 2.5 -17t2.5 -16q0 -23 -45 -23q-41 0 -63 37q-8 10 -33 90q-26 78 -49.5 186.5t-45.5 251.5q-7 -26 -17 -89t-24 -163q-22 -160 -51 -232q-41 -101 -120 -101
q-65 0 -65 33q0 16 13 16q6 0 10 -4q-4 -4 -4 -7q0 -12 27 -12q117 0 172 369q30 198 30 282q0 13 -1 16q16 25 39 25q52 0 52 -36q0 -247 42 -434q39 -174 79 -174q17 0 19 54l6 135q4 45 10 110t14 153q17 148 54 197q20 -3 20 -15z" />
    <glyph glyph-name="O" unicode="O" horiz-adv-x="436" 
d="M412 422q0 -158 -37 -269q-56 -167 -180 -167q-95 0 -148 80q-47 71 -47 170q0 98 23 201q27 118 76 186q8 12 16.5 24t16.5 23q24 30 45 30q5 0 23 -8q8 5 13 5q199 -13 199 -275zM375 427q0 90 -26 153q-36 86 -115 86q-77 0 -134 -172q-47 -143 -47 -256
q0 -221 135 -221q187 0 187 410z" />
    <glyph glyph-name="P" unicode="P" horiz-adv-x="494" 
d="M547 537q0 -119 -158 -202q-105 -55 -262 -85l-5 -143q0 -91 28 -109q-3 0 -9.5 -1.5t-9.5 -1.5q-25 0 -35 16q-6 10 -10 44q-2 20 -3.5 66.5t-1.5 119.5q-9 -1 -21 2l4 23l20 5q-1 66 6 199l7 121q-19 -4 -38 -10t-39 -16q-28 -14 -37 -23q-8 39 9 56q11 12 52 23
q23 7 36.5 10.5t16.5 4.5l4 48q11 11 33 10q31 -1 31 -32q0 -8 -1 -12q116 25 190 25q76 0 128 -31q65 -38 65 -107zM495 560q0 83 -120 83q-42 0 -142 -18q-8 -2 -26.5 -5.5t-47.5 -9.5q-13 -36 -23 -176q-9 -116 -9 -154q48 14 81 24t53 17q92 33 137 69q97 79 97 170z
" />
    <glyph glyph-name="Q" unicode="Q" horiz-adv-x="415" 
d="M401 413q0 -97 -23 -215q-33 -164 -118 -212q72 -26 124 -26q8 0 10 1l-5 -16q-2 -2 -10 -2q-15 0 -37.5 2t-51.5 6t-51.5 6t-37.5 2q-79 0 -130 -13q-6 -1 -23 -12q-14 -10 -18 -10q-7 0 -7 12q0 19 34 32q48 19 54 23q-111 66 -111 293q0 135 58 279q27 68 47 91
q31 36 82 37q53 2 125 -45q63 -40 80 -99q9 -32 9 -134zM352 381q0 163 -30 219q-5 7 -33 21q-13 10 -19.5 15.5t-7.5 6.5q-15 9 -34 9q-43 0 -70 -29q-20 -23 -45 -79q-62 -144 -62 -301q0 -92 25 -154q34 -88 113 -88q93 0 135 154q28 100 28 226z" />
    <glyph glyph-name="R" unicode="R" horiz-adv-x="558" 
d="M614 529q0 -33 -54 -88q-46 -48 -85 -68q-146 -78 -237 -102q6 -23 45 -78q36 -51 58 -73q18 -18 38 -34t42 -30q55 -34 94 -34q6 0 18 4.5t17 4.5q6 0 6 -7q-14 -10 -44 -24q-39 0 -87 22q-45 19 -78 47q-51 43 -136 139q-30 44 -39 44q-15 0 -20 -53v-34t-1 -34
q-1 -20 -1.5 -29.5t-0.5 -10.5q0 -50 12 -114q-4 -13 -14 -13q-16 0 -26 22q-9 16 -9 34q-1 38 0.5 92.5t4.5 126.5q4 76 5.5 130.5t1.5 89.5q0 7 1 21t3 36t3 34.5t1 16.5q-16 0 -77 -29q-59 -29 -59 -40q0 -3 6 -9q-5 -5 -10 -5q-14 0 -14 21q0 30 73 64l78 36q4 7 3 30
q-1 12 -0.5 19.5t1.5 11.5q27 -5 34 -9q13 -8 17 -30q178 32 246 32q64 0 120 -32q64 -37 64 -98zM552 549q0 78 -120 78q-104 0 -248 -44q-3 -49 -7 -97.5t-9 -99.5q-4 -34 -5.5 -58t-1.5 -38q42 5 115 28q35 11 63 22t49 22q58 28 106 76q58 58 58 111z" />
    <glyph glyph-name="S" unicode="S" horiz-adv-x="429" 
d="M401 63q0 -47 -53 -71q-43 -20 -95 -20q-143 0 -256 59q-23 12 -23 29q0 10 11 15q3 -2 9.5 -8.5l17.5 -17.5q5 -5 67 -20q85 -21 161 -21q108 0 108 62q0 36 -28 48l-230 99q-69 30 -69 120t83 258q41 80 92 80q59 0 108 -46q51 -46 55 -104q2 -34 3.5 -65.5t1.5 -62.5
q0 -60 -22 -60q-23 0 -23 34q0 72 -9 159q-5 38 -28 72q-27 41 -61 41q-49 0 -101 -130q-46 -113 -46 -176q0 -33 18.5 -62.5t48.5 -41.5l179 -75q81 -35 81 -95z" />
    <glyph glyph-name="T" unicode="T" horiz-adv-x="556" 
d="M709 622q-1 -16 -21 -16q-135 0 -279 -12q-7 -36 -27 -196q-13 -101 -20.5 -180t-10.5 -139q-2 -40 7 -96q-5 1 -12 3.5t-15 6.5q-20 23 -20 77q0 80 15 239q8 80 12 139t4 99q0 11 -0.5 20t-1.5 17q-27 3 -103 -3q-225 -17 -225 -60q0 -32 90 -32q100 0 189 27
q-18 -30 -42 -36q-94 -23 -159 -23q-51 0 -76 14q-31 19 -31 66q0 44 51 58l124 16q43 5 115.5 10t175.5 10q83 4 141 5.5t92 1.5q28 0 27 -16z" />
    <glyph glyph-name="U" unicode="U" horiz-adv-x="542" 
d="M534 581q-4 -6 -9 -18t-10 -30q-10 -36 -12 -53l-32 -312v-101q3 -91 22 -106q-7 -5 -21 -5q-32 0 -38 78l-1.5 32l-4.5 96q-23 -48 -38 -75.5t-22 -37.5q-45 -63 -103 -63q-156 0 -156 247q0 92 39 250q-73 -56 -113 -56q-27 0 -52 25q5 -1 9 -1h9q121 0 216 210
q52 -16 52 -32q0 -7 -17 -27q-17 -21 -20 -27q-75 -179 -75 -351q0 -87 14 -134q26 -77 94 -77q56 0 104 92q16 29 29 63.5t24 76.5q38 144 38 274q0 47 -4 66q-3 10 -3 18q6 11 19 11q18 0 62 -33z" />
    <glyph glyph-name="V" unicode="V" horiz-adv-x="549" 
d="M531 637q0 -247 -46 -444q-53 -230 -139 -230q-79 0 -115 101q-26 73 -26 167q0 28 3 69t8 96q12 111 12 166q0 69 -32 69q-38 0 -105 -96q-60 -86 -78 -135q-3 -7 -12 -44q-5 -21 -10 -21q-12 0 -12 20q0 72 81 201q73 114 132 114q36 0 63 -41q24 -36 24 -74
q0 -29 -3 -73t-10 -104q-12 -119 -12 -179q0 -54 17 -117q24 -82 66 -82q68 0 119 242q22 103 32.5 201.5t10.5 192.5q0 2 0.5 4.5l1.5 7.5q1 7 0 12t-6 13q11 8 16 8q20 0 20 -44z" />
    <glyph glyph-name="W" unicode="W" horiz-adv-x="560" 
d="M538 514q0 -199 -44 -354q-50 -174 -131 -174q-71 0 -106 128q-12 45 -16 44q-37 -190 -112 -190q-129 0 -129 344q0 45 3.5 113t10.5 160q-4 9 -4 23q0 35 24 35q15 0 32 -11t17 -26q0 -25 -13 -73q-16 -58 -17 -76q-5 -45 -7.5 -99t-2.5 -118q0 -66 15 -133
q22 -99 66 -99q36 0 69 76q23 54 32 106q10 58 16.5 142.5t8.5 198.5q0 6 -2 18t-2 18q17 7 34 7q27 0 42 -19q-38 -38 -38 -335q0 -31 3.5 -60.5t10.5 -58.5q21 -88 63 -88q55 0 98 166q26 98 40 209q5 45 6 85v33q0 20 -1 44l-2 76q0 11 -6 23t-6 24q0 9 10 9q14 0 22 -15
q16 -28 16 -153z" />
    <glyph glyph-name="X" unicode="X" horiz-adv-x="497" 
d="M299 330q42 -180 77 -243q7 -14 17.5 -34t24.5 -46q25 -37 76 -39q0 -12 -6 -13q-1 -1 -16 -1q-68 0 -117 78q-22 35 -45.5 95.5t-48.5 147.5q-155 -236 -155 -275l4 -32q-43 3 -43 36q0 32 89 169q90 136 90 152q-15 82 -24 129t-13 60q-21 74 -53 74q-46 0 -92 -99
q-40 -87 -39 -124q5 -15 5 -23q0 -14 -12 -14q-18 0 -18 30q0 82 43 168q46 96 102 96q54 0 82 -40q5 -7 10.5 -19.5t12.5 -32.5q11 -33 21.5 -70.5t18.5 -80.5q119 170 237 268q9 -5 9 -11q0 -10 -26 -41l-36 -39q-70 -81 -114 -137t-61 -89z" />
    <glyph glyph-name="Y" unicode="Y" horiz-adv-x="402" 
d="M389 636q-12 -49 -20 -86.5t-12 -63.5q-8 -54 -12 -118t-4 -141q0 -22 1.5 -54t3.5 -75q6 -86 6 -128q0 -84 -49 -158q-56 -83 -135 -83q-40 0 -128 32q-99 37 -99 69q0 18 26 18q9 0 67 -46t97 -46q175 0 175 291q0 26 -1.5 65.5t-5.5 93.5q-34 -100 -51 -130
q-44 -78 -103 -78q-75 0 -109 66q-27 52 -27 133q0 29 3 73t8 104q12 118 12 177q0 6 -1 19t-1 19q0 31 18 31q8 0 49 -34l-8 -35q-2 -7 -3 -12.5t-2 -10.5q-14 -88 -21.5 -169.5t-7.5 -159.5q0 -177 81 -177q55 0 105 99q44 87 58 195q8 69 15.5 150t12.5 177q1 19 28 18
q33 -1 34 -25z" />
    <glyph glyph-name="Z" unicode="Z" horiz-adv-x="466" 
d="M470 546q0 -16 -36 -34l-6 -3q-28 -14 -262 -269q-25 -27 -78 -98q-60 -83 -60 -99q0 -12 38 -12q32 0 107 12q38 7 66.5 10t48.5 3q37 0 81 -6q62 -8 62 -21q0 -16 -25 -16q-6 0 -15 1t-18.5 2.5t-18.5 2.5t-15 1q-20 0 -47.5 -3t-62.5 -8l-101 -15q-8 -1 -21 -4.5
t-32 -8.5q-38 -11 -52 -11q-21 0 -33 19q-12 15 -12 37q0 27 59 116q27 40 53.5 75t52.5 64l153 174q82 94 82 105q0 13 -36 13q-129 0 -258 -36q-32 -9 -31 -25q-23 0 -23 16q0 25 51 42q30 9 107 24q75 14 124.5 21t72.5 7q34 0 59.5 -21t25.5 -55z" />
    <glyph glyph-name="bracketleft" unicode="[" horiz-adv-x="291" 
d="M258 -72q0 -22 -23 -22t-68 -6q-22 -4 -38 -5.5t-26 -1.5q-16 0 -16 11l-1 375q0 132 -3 224t-8 146q-2 18 44 19h116q18 0 18 -13q0 -21 -11 -30q-3 -3 -6 -3t-8.5 1.5t-12.5 4t-14 4t-11 1.5q-33 0 -63 -11q-5 -27 -8 -66.5t-3 -93.5q1 112 1 66v-249q0 -247 19 -339
q10 -4 22 -6q7 -1 16 0q5 1 9 1h7q9 0 25.5 2t25.5 2q17 0 17 -11z" />
    <glyph glyph-name="backslash" unicode="\" horiz-adv-x="100" 
d="M20 24q18 0 51 101q22 66 42 148q6 23 14 23t8 -15q0 -34 -39 -152q-44 -131 -70 -131q-23 0 -23 9q0 8 6.5 11.5t10.5 5.5z" />
    <glyph glyph-name="bracketright" unicode="]" horiz-adv-x="270" 
d="M222 -80q2 -18 -44 -19h-116q-18 0 -18 13q0 21 11 30q3 3 6 3t8.5 -1.5t12.5 -4t13.5 -4t11.5 -1.5q32 0 62 11q10 52 12 159q-1 -20 -1 25v158q0 244 -18 340q-14 5 -22 6q-7 1 -17 0q-5 -1 -10 -1h-6q-9 0 -25.5 -2t-25.5 -2q-17 0 -17 11q0 22 23 22t67 6
q23 4 39 5.5t26 1.5q16 0 16 -11l1 -376q0 -132 3 -223.5t8 -145.5z" />
    <glyph glyph-name="asciicircum" unicode="^" horiz-adv-x="312" 
d="M312 385q0 -10 -10 -10q-18 0 -61 94q-17 36 -30 73.5t-23 77.5q-9 -5 -13.5 -8.5t-5.5 -4.5q-4 -4 -6 -23q-1 -2 -7.5 -18t-18.5 -47q-8 -24 -20 -59.5t-29 -83.5q-8 -14 -17 -14q-7 0 -7 36q0 30 18 75q13 31 20 50.5t9 27.5q17 69 27 85q22 40 72 36q12 -12 17 -48
q13 -33 48 -132q10 -28 17.5 -48.5t13.5 -34.5t6 -24z" />
    <glyph glyph-name="underscore" unicode="_" horiz-adv-x="500" 
d="M-2 -120v42h505v-42h-505z" />
    <glyph glyph-name="grave" unicode="`" 
d="M83 514l-46 27q-2 1 -6.5 3.5t-11.5 6.5q-27 16 -27 31q0 17 19 21q22 4 34 -15l8 -8t16 -15q25 -24 25 -31q0 -4 -5 -14z" />
    <glyph glyph-name="a" unicode="a" 
d="M99 280q-4 46 -25 46q-17 0 -30 -48q-4 -11 -9 -29t-12 -41q-16 -61 -16 -151q0 -17 7 -32q9 -19 23 -19q19 11 40 77q8 26 14 48.5t8 40.5l12 92zM160 0q-37 0 -61 73q-26 -93 -67 -93q-59 0 -56 146q2 39 25 130q29 104 49 104q44 0 56 -23l18 -36l35 -12
q-25 -73 -34 -179q-2 -23 4 -48q8 -35 25 -35q34 0 93 246q6 23 14 23t8 -15q0 -37 -37 -151q-42 -130 -72 -130z" />
    <glyph glyph-name="b" unicode="b" horiz-adv-x="251" 
d="M179 255q0 -73 -19 -158q-26 -122 -70 -122q-25 0 -44 45h-9q-5 -15 -14 -15t-16 11.5t-7 21.5q0 4 2 10q-1 76 4 160t16 178q5 36 12 90t16 127q4 33 1 43q6 11 26 9q24 0 24 -25q0 -10 -7 -35q-4 -15 -7.5 -30t-5.5 -29q-22 -125 -33 -208.5t-11 -128.5q10 24 20 64
q21 81 60 81q62 0 62 -89zM147 236q0 83 -23 83q-28 0 -58 -116q-27 -101 -27 -146q9 -8 24 -33q9 -15 22 -15q24 0 40 61q22 76 22 166z" />
    <glyph glyph-name="c" unicode="c" horiz-adv-x="165" 
d="M192 296q8 0 8 -17q0 -16 -18 -82q-23 -83 -36 -117q-35 -84 -74 -84q-47 0 -68 52q-14 39 -14 92t19 128q25 97 61 97q14 0 31 -21q17 -22 17 -36q0 -24 -17 -24q-13 0 -36 17q-41 -50 -41 -198q0 -23 8 -47q10 -31 31 -31q57 0 107 215q8 37 9 41q4 15 13 15z" />
    <glyph glyph-name="d" unicode="d" horiz-adv-x="249" 
d="M100 340q-33 0 -61 -99q-23 -83 -23 -129q0 -97 22 -97t51 74q11 28 19 54t13 50q1 6 2 18.5t3 32.5q2 16 3 28.5t1 22.5q0 45 -30 45zM169 24q18 0 51 101q22 66 42 148q6 23 14 23t8 -15q0 -34 -39 -152q-44 -131 -70 -131q-47 0 -56 99q-11 -28 -18.5 -44t-10.5 -21
q-24 -45 -48 -45q-31 0 -48 38q-13 27 -13 66q0 80 31 182q35 113 73 113q13 0 31 -15q19 -14 20 -14q2 0 4 3q6 47 15.5 118t22.5 168q-3 27 9 31q4 1 17 1q24 0 20 -30q-6 -31 -15 -79.5t-22 -114.5q-1 -7 -7 -53.5t-17 -134.5q-8 -66 -12.5 -108t-4.5 -59q2 -71 23 -75z
" />
    <glyph glyph-name="e" unicode="e" horiz-adv-x="190" 
d="M225 284q0 -7 -15 -67q-38 -150 -75 -201q-23 -29 -53 -29q-42 0 -68 47q-20 40 -20 85q0 31 3 65t10 72q19 109 55 109q21 0 39 -15t18 -36q0 -74 -43 -166q-17 -38 -42 -77q0 -17 17 -39q16 -21 34 -21q48 0 108 228q15 57 19 57q13 0 13 -12zM92 303q0 34 -14 34
q-8 0 -12 -13q-37 -111 -37 -216q23 14 44 90q19 66 19 105z" />
    <glyph glyph-name="f" unicode="f" horiz-adv-x="177" 
d="M212 282q0 -12 -15 -66q-11 -38 -17.5 -63t-9.5 -37q-11 -43 -35 -63q-12 -11 -39 -21q28 -115 28 -186q0 -138 -34 -196q-5 -8 -25 -8q-81 0 -78 190q6 406 69 814q8 7 31 7q16 0 30 -12q-25 -37 -34 -90q-21 -123 -34.5 -225.5t-18.5 -187.5q21 -3 38 -32q4 -6 20 -47
q31 -7 58 63q8 20 19.5 60t27.5 101q3 13 9 13q10 0 10 -14zM101 -174q0 126 -31 204q-26 13 -40 41q-12 -146 -12 -241q0 -20 2 -42.5t6 -47.5q13 -73 34 -73q19 0 31 71q5 27 7.5 49t2.5 39z" />
    <glyph glyph-name="g" unicode="g" horiz-adv-x="232" 
d="M229 -87q-87 0 -87 -7q0 -6 0.5 -17t0.5 -23t0.5 -23t0.5 -17q0 -98 -20 -146q-30 -71 -115 -71q-64 0 -113 45q-50 44 -50 107q0 85 177 147q36 7 87 24q0 9 -1 22.5t-3 32.5q-3 36 -3 54q-4 -1 -23 -34q-18 -32 -37 -32q-35 0 -52 38q-14 31 -14 69q0 66 30 179
q31 118 59 118q20 0 55 -41q38 -44 62 -51q-25 -46 -39 -128q-5 -32 -8 -59.5t-3 -51.5q0 -11 1.5 -38t5.5 -72q37 4 63 5.5t40 1.5q44 0 44 -26q0 -17 -22 -17q-14 0 -36 11zM128 268q0 65 -53 65q-10 0 -35 -93q-29 -105 -29 -176q0 -64 25 -64q28 0 61 104q31 96 31 164z
M114 -98q-61 0 -97 -14q-52 -22 -89 -52q-52 -42 -52 -84q0 -47 39 -80q37 -33 85 -33q118 0 118 180q0 2 -1 22.5t-3 60.5z" />
    <glyph glyph-name="h" unicode="h" horiz-adv-x="273" 
d="M274 149q-11 -40 -18 -64t-11 -32q-18 -43 -44 -43q-59 0 -65 112l-0.5 39.5t-1.5 120.5q-17 -26 -75 -287q-7 -4 -14 -4q-40 0 -40 162q0 41 6 101.5t17 142.5t17 142.5t6 101.5q0 9 -0.5 16t-1.5 12q7 16 33 15q20 -2 20 -18q0 -13 -9 -43q-2 -10 -4 -19.5t-4 -18.5
q-23 -146 -35 -254t-12 -180q0 2 2.5 -20.5t7.5 -69.5q25 70 45 145.5t35 158.5q4 27 20 27q11 0 43 -27q-27 -143 -27 -237q0 -81 32 -81q28 0 66 135q7 23 13 46t11 46q4 22 13 22t9 -13q0 -14 -34 -134z" />
    <glyph glyph-name="i" unicode="i" horiz-adv-x="132" 
d="M85 553q0 -37 -25 -37q-16 0 -28 13t-12 29q0 10 10.5 21t20.5 11q34 0 34 -37zM167 282q0 -25 -35 -139q-26 -82 -33 -98q-20 -44 -48 -44q-31 0 -46 36q-11 30 -11 63q0 18 2 45t6 64t6 64.5t2 45.5q7 7 20 7q26 0 26 -14q-2 -8 -5.5 -22.5t-8.5 -36.5
q-19 -91 -19 -155q0 -67 30 -67q14 0 34 50q1 1 33 102q5 16 11 38t13 51q6 24 14 24q9 0 9 -14z" />
    <glyph glyph-name="j" unicode="j" horiz-adv-x="136" 
d="M93 579q0 -37 -28 -37q-9 0 -20.5 8t-11.5 17q0 4 3 10.5t7 12.5t9 10.5t9 4.5q32 0 32 -26zM164 -80q0 -6 -8 -17q-4 0 -13.5 11t-16.5 15q-17 9 -47 9q-8 0 -23.5 -2.5t-22.5 -2.5l7 -161q1 -56 -36 -99t-94 -43q-61 0 -114 35q-59 41 -59 98q0 27 16 47q5 5 11.5 14
t16.5 20q56 69 221 110l-5 88q0 26 1.5 63t5.5 85q7 91 6 99q-2 7 -3 12l-2 6q27 7 38 7q21 0 21 -14q-17 -38 -28 -141q-4 -40 -6 -77t-2 -71q0 -16 0.5 -29.5t1.5 -25.5q11 0 32.5 2.5t32.5 2.5q22 0 43 -10q26 -14 26 -31zM2 -74q-45 -7 -99 -35q-138 -71 -138 -135
q0 -44 47 -73q43 -26 88 -26q48 0 77 30t28 78z" />
    <glyph glyph-name="k" unicode="k" horiz-adv-x="260" 
d="M286 232q-7 -23 -18 -58t-25 -83q-32 -93 -71 -93q-44 0 -63 46q-4 9 -21 80q-10 -4 -52 -33q-2 -23 -6 -60q7 -21 7 -32q0 -15 -16 -15q-14 0 -21 43q-2 10 -3 24t-1 31q0 46 5 112t15 154q11 91 16 157.5t6 109.5q-4 16 -1 34q4 22 20 22q14 0 23 -11.5t9 -25.5
q0 -25 -21 -115q-3 -20 -15 -109q-8 -58 -13.5 -110.5t-8.5 -100.5q2 2 16 31t40 86q27 58 55 58q21 0 35.5 -15t14.5 -36q0 -45 -25 -88l-11 -17.5l-33 -52.5q-3 -12 -3 -32q0 -36 9 -64q13 -42 39 -42q24 0 48 57q10 25 22.5 64.5t27.5 94.5q1 9 6 31q4 22 15 22
q8 0 8 -12q0 -22 -9 -52zM162 328q0 21 -16 21t-32 -31q-8 -14 -30 -69q-38 -94 -38 -119q35 0 77 82q39 75 39 116z" />
    <glyph glyph-name="l" unicode="l" horiz-adv-x="199" 
d="M102 -14q-52 0 -81 74q-21 55 -21 119q0 88 18 220q19 138 45 215q5 68 34 68q66 0 66 -100q0 -81 -32 -195q-33 -117 -78 -181q-1 -2 -4.5 -7t-9.5 -13q-8 -11 -8 -22q0 -70 32 -114q22 -30 41 -30q37 0 94 198q2 10 5.5 24t8.5 33q4 21 13 21t9 -15q0 -39 -40 -156
q-46 -139 -92 -139zM116 645q-83 -273 -83 -413q38 59 69 167q30 100 30 155q0 75 -16 91z" />
    <glyph glyph-name="m" unicode="m" horiz-adv-x="416" 
d="M451 284q0 -55 -60 -211q-29 -75 -64 -75q-44 0 -51 84l-1 27l-3 81q-14 -53 -24.5 -86.5t-15.5 -47.5q-23 -56 -47 -56q-35 0 -35 59q0 16 1.5 38.5t3.5 53.5t3.5 53.5t1.5 38.5q0 9 -7 9q-11 0 -26 -70q-11 -54 -18.5 -86t-10.5 -43q-23 -69 -51 -69q-31 0 -31 97v26
q0 16 1 36q1 21 1.5 36.5t0.5 26.5l-9 23q-5 69 23 69q25 0 25 -39q0 -13 -1.5 -31t-5.5 -42t-5.5 -42t-1.5 -31q0 -23 1.5 -44.5t5.5 -40.5q22 35 28 69q8 46 14 75t9 40q25 93 55 93t30 -67q-5 -43 -7.5 -77t-2.5 -59q0 -48 10 -48q21 0 54 120q32 113 27 131q2 11 21 11
q13 0 39 -16q-25 -113 -25 -195q0 -76 24 -76q27 0 59 93q5 11 39 136q2 5 4 12.5t4 17.5q3 8 10 8q8 0 8 -12z" />
    <glyph glyph-name="n" unicode="n" horiz-adv-x="283" 
d="M318 281q0 -28 -35 -136q-48 -145 -77 -145q-37 0 -51 71q-4 20 -7 62.5t-6 109.5q-5 -18 -18.5 -66.5t-33.5 -129.5q-10 -43 -31 -43q-31 0 -38 42l-4 75q-3 44 0 80l3 37l-9 19q1 27 5 36q6 16 25 16q20 0 20 -18q0 -6 -7 -26q-6 -20 -6 -32v-23q0 -13 -1 -31t-1 -32
v-22q0 -72 16 -72q5 0 13 26q14 58 21 76q14 45 23 83t11 72q3 42 14 50q51 -3 51 -32q0 22 -3 8t-8 -65q-5 -50 -7.5 -81.5t-2.5 -45.5q0 -108 28 -108q24 0 58 106q10 31 18.5 61.5t15.5 61.5t16 31q8 0 8 -15z" />
    <glyph glyph-name="o" unicode="o" horiz-adv-x="247" 
d="M282 287q0 -44 -26 -104q-23 -53 -61 -53q-5 0 -35 12q-2 -11 -5 -25t-7 -31q-8 -23 -14.5 -39t-11.5 -24q-20 -32 -49 -32q-73 0 -73 149q0 95 16 128q0 -3 0 -2q0 2 -1 9t-1 11v7q1 9 6 14q2 5 4 15t6 27q7 34 34 34q26 0 54 -22q29 -22 37 -45q8 -24 8 -145
q14 -11 25 -11q35 0 52 39q8 15 21 79q4 18 12 18q9 0 9 -9zM131 139q0 11 -2 27t-6 37t-6 36.5t-2 26.5q0 7 1.5 22t1.5 22q0 35 -32 35q-21 0 -37 -94q-15 -81 -15 -123q0 -108 44 -108q11 0 29 40q24 52 24 79z" />
    <glyph glyph-name="p" unicode="p" horiz-adv-x="260" 
d="M187 268q0 -90 -18 -166q-28 -118 -92 -118q-19 0 -33 20q-16 25 -22 27q-10 -50 -14.5 -107.5t-4.5 -123.5q0 -51 4 -74q3 -19 13 -43q0 -4 -14 -4q-34 0 -34 119q0 48 6 117.5t17 162.5q11 94 16 159.5t4 104.5q-5 5 -5 10q0 13 16 13q19 0 19 -28q0 -6 -1.5 -17
t-1.5 -16v-10q1 -5 1 -9v-8v-39q10 30 27 71q25 57 39 57q46 0 64 -27q14 -22 14 -71zM123 344q-13 0 -23 -24l-22 -58q-49 -128 -47 -169q20 -11 20 -18q0 -3 -4.5 -7.5t-4.5 -8.5q0 -18 9 -33q10 -18 28 -18q35 0 58 83q18 64 18 113v12q1 5 1 9v9v32q0 78 -33 78z" />
    <glyph glyph-name="q" unicode="q" horiz-adv-x="221" 
d="M258 55q-14 -34 -28 -75t-28 -90q-22 -76 -22 -88t18 -70v-14q0 -9 -23 -9q-27 0 -27 21q0 7 1 10q-1 18 -4 65.5t-10 125.5q-14 158 -12 196q-26 -80 -37 -104q-19 -37 -43 -37q-61 0 -61 88q0 69 18 158q27 123 70 123q28 0 52 -56q1 24 12 24q10 0 18 -12t8 -22
q0 -2 -2 -8q-2 -29 -3 -58t-1 -59q0 -146 21 -309q10 35 25 79t35 96q7 18 10.5 22t12.5 3zM121 272q-10 10 -26 36q-8 12 -20 12q-24 0 -40 -61q-22 -81 -22 -166q0 -20 0.5 -33.5t1.5 -19.5q4 -28 23 -28q26 0 56 115q27 102 27 145z" />
    <glyph glyph-name="r" unicode="r" horiz-adv-x="224" 
d="M150 -2q-31 0 -52 35q-9 15 -10 61q-2 34 0 93l2 80q0 24 -49 49q0 -25 -24 -107q0 -1 -5 -10.5t-5 -10.5l-13 4q0 16 12 63q13 45 13 71q0 10 -8 34t-8 35q0 50 25 50q20 0 21 -31q1 -6 0.5 -13.5t-1.5 -17.5q-1 -12 -1.5 -20t-0.5 -12q0 -10 42 -32q43 -22 43 -51
q0 -17 -2 -41.5t-6 -57.5q-4 -32 -6 -56.5t-2 -41.5q0 -47 29 -47q17 0 53 105q34 97 40 144q3 23 14 23q8 0 8 -15q0 -34 -39 -152q-44 -131 -70 -131z" />
    <glyph glyph-name="s" unicode="s" horiz-adv-x="165" 
d="M110 82q0 -34 -14 -64q-18 -34 -51 -34q-30 0 -52 25q-16 16 -16 32q0 19 8 21q7 0 7 -16q17 -38 37 -38q46 0 46 78q0 34 -20 105q-11 36 -21 63q-4 -14 -10.5 -35.5t-14.5 -50.5q-10 -34 -26 -34q-2 0 -8 2q41 155 41 221q0 27 26 27q29 0 29 -19q0 -3 -1.5 -10
t-3.5 -15t-3.5 -15.5t-1.5 -12.5q0 -38 24 -117q25 -76 25 -113z" />
    <glyph glyph-name="t" unicode="t" horiz-adv-x="147" 
d="M304 480q-4 -5 -50 -13q-38 -7 -57 -7h-42t-46 1l-48 1q-24 -168 -24 -246q0 -45 0.5 -73t1.5 -39q4 -61 28 -61q39 0 88 208q10 45 17 45q10 0 10 -15q0 -33 -35 -141q-44 -131 -83 -131q-34 0 -51 68q-11 47 -11 93q0 23 6.5 95.5t19.5 195.5q-17 2 -101 3l-23 -7
q-7 8 -21 14q-11 5 -11 11q0 7 12 7q19 0 55 1.5t91 3.5q1 11 2 29.5t3 44.5l-5 18q3 7 11 7q13 0 40 -18v-21q-2 -13 -5 -28t-7 -33q8 0 31.5 -0.5t63.5 -1.5q20 -1 54.5 -1.5t85.5 -2.5v-7v0z" />
    <glyph glyph-name="u" unicode="u" horiz-adv-x="276" 
d="M194 11q-22 0 -38 33q-4 6 -18 52q-7 -17 -15 -35.5t-16 -38.5q-18 -31 -47 -31q-26 0 -41 30q-12 25 -12 54q0 21 1 51.5t3 71.5q4 102 11 113q5 8 17 8q10 0 18 -8.5t8 -18.5t-4 -23q-2 -10 -3.5 -15.5t-2.5 -7.5q-7 -39 -10.5 -85.5t-3.5 -100.5q0 -44 19 -44
q15 0 28 25q5 10 9 19.5t8 19.5q22 52 33 130q1 2 2.5 13t4.5 30l3.5 24.5t1.5 18.5v32q0 10 -1 6q3 26 20 24q29 0 29 -16q0 -5 -5.5 -16.5t-6.5 -20.5q0 -4 -2.5 -22.5t-7.5 -52.5q-4 -28 -6 -51t-2 -41q0 -95 29 -95q27 0 58 106q12 43 36 132q4 15 12 15t8 -12
q0 -35 -34 -140q-42 -133 -83 -133z" />
    <glyph glyph-name="v" unicode="v" horiz-adv-x="229" 
d="M170 287q0 -56 -26 -157q-31 -121 -70 -121q-36 0 -51 74q-9 45 -9 101v20q0 13 1 30t1 30v21q-2 8 -2 11t2 6t10 3q31 -1 31 -32q0 -8 -1.5 -21.5t-3.5 -30.5t-3 -30t-1 -21q0 -124 30 -124q15 0 41 92q24 85 24 124v73q-7 32 -7 29q0 6 7 6q27 0 27 -83z" />
    <glyph glyph-name="w" unicode="w" horiz-adv-x="319" 
d="M325 245q2 7 3 14t3 15q6 22 15 22q8 0 8 -11q0 -29 -17 -72q-20 -51 -44 -51q-22 0 -50 15l-20 -111q-15 -50 -49 -50q-37 0 -61 82q-22 -100 -60 -100q-55 0 -55 140q0 8 2 33.5t6 70.5t6.5 68t3.5 25q6 13 19 13q12 0 29 -17q-37 -95 -37 -219q0 -85 33 -85
q43 61 43 149q0 10 1 23.5t3 32.5t3.5 32.5t1.5 23.5q0 9 -2 15l-3 12q9 10 25 10q22 0 22 -19q0 -4 -1.5 -10.5t-3 -13.5t-3.5 -13.5t-2 -9.5q-4 -42 -6 -68t-2 -37q0 -19 14 -95q6 -16 22 -16q17 0 37 92q5 27 8 45.5t3 28.5q0 13 -6 45q-2 16 -3.5 27.5t-1.5 19.5v35
t1 17q3 27 17 33q19 -11 21 -30l5 -145q1 -18 25 -18q34 0 47 52z" />
    <glyph glyph-name="x" unicode="x" horiz-adv-x="230" 
d="M265 282q0 -40 -38 -145q-48 -133 -107 -133q-20 0 -58 32q-3 -7 -22 -95q-26 3 -26 14q0 14 37 109q-8 37 -15 100q-9 72 -6 98l-14 17q1 15 6 45q4 30 20 30q25 0 25 -49q0 -5 -0.5 -19.5t-1.5 -38.5q-3 -98 9 -124q22 55 75 174q7 13 16.5 31t21.5 42q18 -11 18 -19
q0 -7 -42 -88q-55 -105 -80 -185q0 -7 4 -15t10 -15t13.5 -11.5t14.5 -4.5q56 0 110 208q2 8 3.5 15.5t3.5 15.5q6 25 13 25q10 0 10 -14z" />
    <glyph glyph-name="y" unicode="y" horiz-adv-x="240" 
d="M292 -91q-23 4 -37.5 5.5t-21.5 1.5q-16 0 -61 -15q0 -6 0.5 -16.5t1 -21.5t1 -21.5t0.5 -16.5q0 -229 -147 -229q-24 0 -44.5 9t-35.5 24.5t-23.5 36.5t-8.5 45q0 73 90 138q71 50 136 64q0 107 -15 167q-4 -10 -10.5 -24t-15.5 -33q-17 -32 -41 -32q-32 0 -48 33
q-13 26 -13 61q0 49 9 142q1 14 2 29l2 30q7 45 26 45q17 0 15 -14l-11 -102q-4 -40 -6 -70t-2 -51q0 -81 26 -81t65 150q3 25 9 70t14 112q3 25 27 26q16 1 16 -13q0 -23 -21 -98q-5 -19 -7 -69t-1 -134q0 -29 3 -90l2 -44q5 1 15 3.5t24 6.5q32 8 45 8q44 0 44 -23
q0 -5 -3 -9zM145 -109q-88 -24 -147 -83q-52 -51 -52 -107q0 -16 5.5 -31t15.5 -27t23.5 -19t28.5 -7q65 0 99 73q27 58 27 129v72zM-79 24q18 0 51 101q11 32 21 69t20 79q6 23 14 23t8 -15q0 -31 -39 -152q-44 -131 -69 -131q-23 0 -23 9q0 8 6 11.5t11 5.5z" />
    <glyph glyph-name="z" unicode="z" horiz-adv-x="274" 
d="M283 -68q-27 8 -52 8q-23 0 -45 -6q5 -40 7.5 -61.5t2.5 -25.5q0 -77 -30 -141q-38 -83 -106 -83q-49 0 -86 34q-37 33 -37 81q0 118 212 210q-12 52 -61 79q-26 -23 -41 -23q-35 0 -35 25q0 26 51 25q50 57 69 103q25 59 25 148q0 69 -44 69q-28 0 -53 -33
q-20 -28 -25 -58t-9 -30q-12 0 -12 16q0 27 20 75q27 63 65 63q42 0 66 -29.5t24 -74.5q0 -145 -90 -260q36 -20 50 -35q15 -17 31 -53q43 9 76 9q36 0 36 -19q0 -9 -9 -13zM169 -147q0 20 -2 38t-6 35q-67 -15 -125 -73q-60 -62 -60 -128q0 -33 19 -54.5t52 -21.5
q63 0 96 75q26 60 26 129z" />
    <glyph glyph-name="braceleft" unicode="{" horiz-adv-x="311" 
d="M272 649q-2 -14 -17 -15q17 1 7.5 1.5t-46.5 0.5q-39 0 -45 -20q-7 -27 -12 -158q-3 -111 -33 -152q-3 -4 -9.5 -8.5t-14 -9.5t-14 -9.5t-9.5 -8.5q-11 -9 -11 -18q0 -6 13 -16q5 -4 11 -9t13 -10q11 -13 18.5 -21t9.5 -13q9 -17 14 -52q15 -107 15 -219q0 -19 17 -30.5
t37 -11.5h35q13 -3 13 -15q0 -5 -8 -7q-7 0 -20.5 1.5t-20.5 1.5q-84 0 -84 34q0 32 -9 103q-4 35 -6 61.5t-2 43.5q-2 57 -22 99q-5 10 -20 23t-26 16q-14 5 -14 22q0 20 14 28q40 20 55 31q14 39 20 119q4 52 4.5 92t-2.5 69q-8 69 88 69q7 0 21.5 1.5t21.5 1.5
q19 0 18 -15z" />
    <glyph glyph-name="bar" unicode="|" horiz-adv-x="270" 
d="M203 666q0 -40 -16 -117q-3 -14 -6.5 -52t-7.5 -101q-5 -75 -7.5 -144t-2.5 -134q0 -100 6 -179q1 -7 3.5 -17.5t7.5 -24.5q11 -30 11 -41q0 -15 -9 -27q-1 -1 -1.5 -5.5t-2.5 -3.5l-24 3q-5 0 -6 4q-27 64 -27 203q0 89 5 188t15 211q22 255 51 255q11 0 11 -18z" />
    <glyph glyph-name="braceright" unicode="}" horiz-adv-x="311" 
d="M269 260q0 -20 -14 -28q-40 -20 -55 -31q-14 -39 -20 -119q-4 -51 -4.5 -91t2.5 -69q7 -69 -88 -69q-7 0 -21.5 -1.5t-21.5 -1.5q-20 0 -18 15q2 14 17 15q-17 -1 -7.5 -1.5t46.5 -0.5q39 0 45 20q8 27 12 157q3 111 33 152q3 4 9.5 8.5t14 9.5t14 9.5t9.5 8.5
q11 9 11 18q0 6 -11.5 15t-25.5 20q-11 13 -18.5 21t-9.5 13q-9 17 -14 52q-15 106 -15 220q0 19 -17 30.5t-37 11.5h-35q-13 3 -13 15q0 5 8 7q7 0 20.5 -1.5t20.5 -1.5q84 0 84 -32q0 -18 2 -44t6 -61q9 -72 9 -106q2 -57 22 -99q3 -5 8.5 -11t12 -12t13.5 -10.5t12 -5.5
q14 -3 14 -22z" />
    <glyph glyph-name="asciitilde" unicode="~" horiz-adv-x="504" 
d="M463 254q0 -45 -35 -77t-80 -33q-38 -2 -66 19q-2 2 -14.5 14t-34.5 35q-31 34 -51 34q-41 0 -65 -33q-7 -10 -16.5 -23.5t-22.5 -32.5q-5 -5 -13 -5q-18 0 -18 13q0 41 45 80t87 39q43 0 82 -45q16 -19 25.5 -29t11.5 -12q23 -21 50 -18q69 7 77 78q1 18 19 16
q19 0 19 -20z" />
    <glyph glyph-name="exclamdown" unicode="&#xa1;" horiz-adv-x="201" 
d="M86 9q50 138 50 398q0 44 -1.5 75t-5.5 51q14 8 20 -2q19 -34 24 -67q3 -23 3 -73q0 -21 -2.5 -67.5t-7.5 -118.5q-10 -152 -18 -211q-4 -10 -24 -10q-19 0 -38 25zM114 626q0 9 8 21.5t17 12.5q14 0 25.5 -10t11.5 -24q0 -10 -13 -30q-12 -21 -19 -21q-16 0 -23 19
q-7 14 -7 32z" />
    <glyph glyph-name="cent" unicode="&#xa2;" horiz-adv-x="245" 
d="M179 277q0 -11 -15 -30q-14 -18 -27 -26q-21 -11 -58 -17v-5q0 -2 1 -7v-16q0 -37 -13 -37q-7 0 -9 32v7t-1 12v18q-38 30 -48 60q-9 24 -9 78q0 147 64 193q-1 6 -0.5 15t1.5 20q3 29 9 29q13 0 13 -6v-51q8 -3 19 -9t26 -14q33 -26 33 -52q0 -14 -16 -14q-18 0 -40 24
q-23 24 -24 24q-22 0 -40 -68q-16 -58 -16 -109q0 -35 9 -62q13 -39 42 -39q50 0 77 67q22 -4 22 -17z" />
    <glyph glyph-name="sterling" unicode="&#xa3;" horiz-adv-x="480" 
d="M325 539q48 48 125 50q48 1 48 -30q0 -21 -21 -21q-4 0 -13.5 1.5t-14.5 1.5q-103 0 -184 -192q69 19 99 19q50 0 50 -33q0 -24 -20 -24q-5 0 -18.5 2.5t-22.5 2.5q-22 0 -57 -8q-14 -4 -27.5 -7t-27.5 -7q-63 -151 -121 -221q106 36 178 36q47 0 47 -28q0 -20 -17 -25
q-11 -3 -46 -3q-85 0 -238 -57q-33 -13 -45 -13q-27 0 -27 24q0 20 33 40q67 40 101 94q11 17 28.5 52t42.5 88q-25 -4 -42.5 -6t-27.5 -2q-35 0 -35 26q0 11 8.5 20t18.5 9q7 0 19.5 -1.5t18.5 -1.5q28 0 65 8q68 152 123 206z" />
    <glyph glyph-name="currency" unicode="&#xa4;" horiz-adv-x="600" 
d="M428 142q-53 -44 -127 -44q-76 0 -129 44l-96 -100l-39 40l98 99q-45 55 -45 130q0 77 45 130l-98 99l39 40l96 -100q58 46 129 46q72 0 127 -46l96 100l39 -40l-96 -99q43 -58 43 -130q0 -77 -43 -130l96 -99l-39 -40zM301 477q-67 0 -114 -50t-47 -116t47 -116
q46 -48 114 -48q65 0 112 48q47 50 47 116t-47 116t-112 50z" />
    <glyph glyph-name="yen" unicode="&#xa5;" horiz-adv-x="435" 
d="M224 282q-1 211 -38 264q-2 4 -2 6q0 13 27 16q18 0 26 -15q13 -28 23 -81.5t17 -132.5q35 46 71 88.5t73 81.5q63 68 79 77q27 16 38 8q13 -9 13 -22q0 -14 -18.5 -30t-36.5 -32q-68 -65 -138 -153q-17 -23 -35 -45t-35 -45q17 4 30.5 5.5t21.5 1.5q50 0 50 -28
q0 -20 -20 -20q-5 0 -18.5 2t-22.5 2q-20 0 -78 -11l-23 -30q35 7 54 7q50 0 50 -28q0 -20 -20 -20q-5 0 -18.5 2t-22.5 2q-28 0 -80 -12q-31 -44 -56 -83t-45 -74q-15 -29 -31 -30q-24 -3 -28 19q-5 23 92 155q-85 -14 -110 -11q-22 3 -22 22q0 8 8 16t18 8q7 0 19.5 -1
t18.5 -1q38 0 65 6l36 8l22 30l-25 -4q-57 -9 -82 -6q-23 3 -23 21q0 9 8.5 17t18.5 8q7 0 19.5 -1.5t18.5 -1.5q33 0 98 15z" />
    <glyph glyph-name="brokenbar" unicode="&#xa6;" horiz-adv-x="222" 
d="M87 675h48v-344h-48v344zM87 169h48v-343h-48v343z" />
    <glyph glyph-name="section" unicode="&#xa7;" horiz-adv-x="490" 
d="M437 420q-19 -19 -45 -35q-28 -17 -39 -17q-19 0 -19 18q0 14 26 34q4 3 9 7.5t10 9.5q-33 55 -97 55q-78 0 -78 -81q0 -30 13 -49q24 -33 96 -72q116 -63 116 -125q0 -32 -26 -58.5t-95 -61.5q49 -36 49 -79q0 -22 -16 -48t-38 -40l-36 -22q-1 -1 -3 -2t-4 -3
q-71 -53 -128 -53q-45 0 -74.5 22t-29.5 55q0 25 44 60q40 32 54 32q18 0 18 -19q0 -23 -45 -54q42 -47 102 -47q83 0 83 71q0 66 -119 134q-109 63 -109 121q0 14 4.5 26t15.5 24t29 25.5t45 29.5l25 14q-45 40 -45 78t31 69q10 10 29.5 23.5t48.5 32.5q40 25 53 31
q26 13 59 13q45 0 74 -22.5t29 -56.5q0 -25 -17 -40zM239 253q-15 8 -29 16.5t-27 16.5q-52 -39 -52 -87q0 -15 6 -28.5t20 -27t37 -29t57 -34.5q14 -8 26.5 -15t23.5 -15q53 38 53 84q0 32 -25 57q-12 13 -34.5 28t-55.5 34z" />
    <glyph glyph-name="dieresis" unicode="&#xa8;" horiz-adv-x="152" 
d="M162 554q0 -37 -25 -37q-16 0 -28 13t-12 29q0 10 10.5 21t20.5 11q34 0 34 -37zM85 553q0 -37 -25 -37q-16 0 -28 13t-12 29q0 10 10.5 21t20.5 11q34 0 34 -37z" />
    <glyph glyph-name="copyright" unicode="&#xa9;" horiz-adv-x="768" 
d="M755 370q0 -195 -142 -333q-134 -129 -298 -129q-136 0 -226 91q-89 92 -89 227q0 165 118 311q130 160 305 160q131 0 232 -98q100 -97 100 -229zM722 372q0 118 -90 205q-88 88 -208 88q-161 0 -281 -149q-111 -138 -111 -291q0 -120 80 -203q81 -81 202 -81
q168 0 289 133q119 130 119 298zM586 254q-57 -95 -151 -153q-81 -51 -137 -51q-162 0 -162 162q0 115 104 213q112 106 268 106q31 0 42 -26q5 -15 5 -60q0 -34 -26 -34q-6 0 -12.5 8t-6.5 15q0 14 -0.5 22t-1.5 12q-5 12 -20 12q-117 0 -209 -74q-97 -79 -97 -194
q0 -116 116 -116q47 0 118 47q81 54 129 136q7 13 21 12q24 0 24 -24q0 -6 -4 -13z" />
    <glyph glyph-name="ordfeminine" unicode="&#xaa;" horiz-adv-x="317" 
d="M173 475q-15 -16 -28.5 -34.5t-23 -37.5t-15 -36.5t-5.5 -30.5q0 -29 24 -29q43 0 102 99q3 71 -37 71q-1 0 -5 -0.5zM187 330q-66 -57 -105 -57q-32 0 -32 33q0 61 72 136q68 71 110 71q24 0 24 -42q0 -20 -9 -45l23 7q-19 -75 -19 -101q0 -52 36 -52q9 0 17 4l4 -4
q-47 -27 -69 -27q-37 0 -39 59q1 5 1 12q0 8 1 19zM303 200h-256v25h256v-25z" />
    <glyph glyph-name="guillemotleft" unicode="&#xab;" horiz-adv-x="427" 
d="M289 264q60 -69 98 -163l-66 -39h-8q-38 100 -90 159v9q93 75 162 151h4l11 -15q-33 -41 -111 -102zM106 259q66 -82 95 -162l-63 -35h-12q-23 82 -84 162v5q43 36 83.5 73.5t78.5 75.5h6l13 -15q-23 -27 -104 -93z" />
    <glyph glyph-name="logicalnot" unicode="&#xac;" horiz-adv-x="600" 
d="M499 331h-446v50h494v-273h-48v223z" />
    <glyph glyph-name="registered" unicode="&#xae;" horiz-adv-x="768" 
d="M761 371q0 -194 -142 -333q-134 -129 -298 -129q-136 0 -226 91t-90 227q0 163 119 311q129 160 305 160q131 0 232 -98q100 -97 100 -229zM728 373q0 118 -90 205q-88 88 -208 88q-161 0 -281 -149q-111 -138 -111 -291q0 -120 80 -203q81 -81 202 -81q168 0 289 133
q119 130 119 298zM625 444q0 -27 -42 -70q-36 -36 -67 -53q-111 -61 -183 -79q4 -18 29 -57q23 -36 40 -53q11 -11 21.5 -23t21.5 -23q29 -26 54 -26q5 0 14 3t13 3q6 0 6 -6q-10 -8 -35 -21q-26 0 -48 15q-60 40 -145 144q-7 8 -16 23q-5 6 -9 6q-13 0 -14 -33v-45v-7
t-1 -9q-2 -26 -0.5 -56.5t8.5 -64.5q-5 -11 -13 -11q-13 0 -22 17q-7 13 -7 28q-1 31 0.5 73.5t3.5 98.5q6 118 6 172q0 10 3 43t3 40q-14 -3 -58 -23q-46 -22 -46 -30q1 -1 2.5 -3t3.5 -4q-7 -5 -12 -5q-11 0 -11 17q0 22 58 50q20 10 35 17t26 12q1 9 1.5 21t2.5 27
q21 -3 27 -6q9 -5 14 -23q144 24 191 24q51 0 94 -25q51 -30 51 -78zM574 460q0 60 -92 60q-81 0 -192 -35q-2 -34 -5.5 -72t-7.5 -80q-2 -25 -3.5 -43.5t-1.5 -30.5q11 2 31 7t49 13q63 20 95 36q44 22 81 59q46 46 46 86z" />
    <glyph glyph-name="macron" unicode="&#xaf;" horiz-adv-x="114" 
d="M-38 457q-1 3 4 12.5t6 16.5q-2 4 3 9l3 3l2 1h54l5 -2.5t10 -2.5q5 8 12 8l6 -11l9 11q10 0 16 -7q8 8 19 8h10q5 -1 11 -1q3 -4 8 -4q6 0 9 5q3 0 5 -2v-5l-25 -29v-10h-10q-6 1 -9 1h-3l-1 2q-4 6 -11 2q-3 -1 -7.5 -1.5t-9.5 -2.5l-1 1q-5 11 -14 3q-2 -2 -7 -2
q-6 0 -10 1l-8 6l-8 -7q-11 0 -28.5 -0.5t-40.5 -1.5z" />
    <glyph glyph-name="degree" unicode="&#xb0;" horiz-adv-x="399" 
d="M236 378q-60 0 -104 44q-43 43 -43 106t43 106q44 44 104 44t104 -44q43 -43 43 -106t-43 -106q-44 -44 -104 -44zM235 641q-45 0 -78 -33q-32 -34 -32 -80t32 -80q32 -32 78 -32q48 0 80 32t32 80q0 47 -33 80t-79 33z" />
    <glyph glyph-name="plusminus" unicode="&#xb1;" horiz-adv-x="667" 
d="M357 85h-48v238h-237v48h237v240h48v-240h238v-48h-238v-238zM72 -25h523v-48h-523v48z" />
    <glyph glyph-name="twosuperior" unicode="&#xb2;" horiz-adv-x="302" 
d="M206 418q-20 -14 -42 -32t-48 -41q70 14 102 14q11 0 30.5 -1.5t48.5 -5.5l4 -5l-54 -46q-41 7 -70 10.5t-48 3.5q-43 0 -78 -25l-4 4q19 19 42 38.5t49 41.5q99 80 104 125q-2 41 -51 41q-43 0 -83 -33q-7 -5 -10 -5h-4q0 11 41 46q50 43 106 43q31 0 50.5 -15t19.5 -37
q0 -46 -105 -121z" />
    <glyph glyph-name="threesuperior" unicode="&#xb3;" horiz-adv-x="302" 
d="M189 448q33 3 34 3q58 0 58 -46q0 -62 -101 -109q-31 -34 -82 -37h-12q-22 0 -23 16q21 18 38 29q16 -16 37 -16q28 0 57 26q30 27 30 54q0 24 -20.5 38.5t-52.5 14.5q-18 0 -50 -8l-2 2q22 18 35 33q53 -2 80 24q20 18 20 43q0 21 -15.5 35t-38.5 14t-60 -26l-2 2
q49 54 104 54q28 0 47 -15t19 -36q0 -43 -100 -95z" />
    <glyph glyph-name="acute" unicode="&#xb4;" 
d="M224 582q0 -15 -28 -31q-2 -2 -6.5 -4t-11.5 -6l-46 -27l-5 8q-6 7 -6 12q0 7 25 31l9 9t15 14q12 19 34 15q12 -2 16 -9t4 -12z" />
    <glyph glyph-name="mu" unicode="&#xb5;" horiz-adv-x="298" 
d="M240 206q-30 -57 -30 -93q0 -55 38 -76q18 -11 18 -21q0 -16 -22 -16q-34 0 -52 37q-6 10 -9 28q-1 5 -2 17.5t-3 33.5q-6 -8 -13.5 -18.5t-17.5 -23.5q-41 -56 -72 -56q-9 0 -26 17q-23 -74 -36 -156q-1 -1 -14 -113q-5 -36 -17 -36q-16 0 -14 20q8 91 21 172t31 153
q20 76 64 146q51 82 81 82q13 0 13 -11q0 -5 -7 -13q-14 -17 -32.5 -44.5t-43.5 -65.5q-27 -53 -27 -85q0 -23 21 -23q25 0 67 64q36 54 48 91q25 76 52 76q13 0 13 -15q0 -18 -29 -71z" />
    <glyph glyph-name="paragraph" unicode="&#xb6;" horiz-adv-x="549" 
d="M359 -216h-30l120 855h-96l-120 -855h-31l72 511q-32 2 -56.5 5t-41.5 8q-57 14 -82 45q-30 39 -30 97q0 7 0.5 13.5t1.5 13.5q12 88 76 136t167 48h238l-3 -22h-65z" />
    <glyph glyph-name="periodcentered" unicode="&#xb7;" horiz-adv-x="246" 
d="M108 222l-4 4q-1 1 -5.5 1.5t-6.5 2.5v16q6 0 6 4q0 2 -2.5 4t-3.5 4q0 7 1 15.5t3 18.5q11 5 14 2q2 -2 4 -2t4 2q7 0 18 -8q7 0 18 -6l-6 -44q0 -4 4 -8q-2 -4 -3.5 -6.5t-2.5 -3.5q-12 0 -14 2z" />
    <glyph glyph-name="cedilla" unicode="&#xb8;" horiz-adv-x="160" 
d="M78 -33q30 -16 34 -46q4 -25 -29 -40q-52 -24 -53 -25q0 -1 -2 -1q-4 0 -6 14q-1 13 0 17q8 2 16 4.5t16 4.5q25 7 23 24q-2 13 -15 15.5t-27 4.5q-3 3 -4 6q-1 4 1 10q5 7 17.5 25t32.5 47l31 -2q-38 -43 -38 -53q0 -4 3 -5z" />
    <glyph glyph-name="onesuperior" unicode="&#xb9;" horiz-adv-x="302" 
d="M202 310q-25 -11 -42 -21t-25 -19l-4 2l63 265l-88 -59l-6 8l16 11q22 14 55 37.5t78 55.5l7 -7q-39 -150 -54 -273z" />
    <glyph glyph-name="ordmasculine" unicode="&#xba;" horiz-adv-x="320" 
d="M119 272q-55 0 -55 55q0 42 37 91l-1 15q77 47 127 47q55 0 55 -58q0 -52 -54 -101q-53 -49 -109 -49zM70 220h201v-20h-201v20zM156 458q-49 -53 -49 -98q0 -27 16.5 -45t42.5 -18q11 0 26 5q46 49 46 91q0 26 -16 45q-21 26 -66 20z" />
    <glyph glyph-name="guillemotright" unicode="&#xbb;" horiz-adv-x="427" 
d="M231 65l-12 15q33 35 89 80l26 22l-18 25q-48 67 -75 138l63 34h12q21 -82 85 -161v-7q-74 -56 -164 -146h-6zM52 62l-12 14q54 57 94 87l18 14q-42 48 -94 153l-5 10l69 40h7q37 -102 90 -159v-9q-93 -68 -163 -150h-4z" />
    <glyph glyph-name="onequarter" unicode="&#xbc;" horiz-adv-x="490" 
d="M185 280q-17 -8 -30 -15t-23 -14l47 174l-66 -36l-3 9q33 17 61.5 33.5t51.5 33.5l5 -3q-14 -52 -24.5 -97t-18.5 -85zM44 3l401 454l14 -11l-402 -454zM353 55l-9 -47q-18 -7 -43 -21l17 68h-100l-2 5q22 32 151 135l13 10l3 -1l-25 -125h62l-31 -24h-36zM264 77h61
l18 88q-37 -31 -58 -51t-28 -30z" />
    <glyph glyph-name="onehalf" unicode="&#xbd;" horiz-adv-x="490" 
d="M133 244h-1l42 177l-66 -36l-4 7l37 22q12 7 33 19.5t50 31.5l4 -3q-14 -54 -24 -99t-16 -83zM43 3l404 452l13 -12l-405 -451zM335 72q-10 -6 -28 -18t-44 -31q57 16 100 16q2 0 13 -0.5t32 -1.5l2 -4l-31 -33q-17 4 -34 5.5t-34 1.5q-38 0 -93 -11l-3 4l16 12l38 28
t39 28q63 48 63 66q0 25 -45 25q-31 0 -61 -15l-2 2q55 48 95 48q26 0 43 -11t17 -28q0 -29 -83 -83z" />
    <glyph glyph-name="threequarters" unicode="&#xbe;" horiz-adv-x="490" 
d="M168 371q57 -9 57 -35t-39 -50q-38 -24 -80 -24q-21 0 -28 10q14 14 28 19q22 -9 39 -9q42 0 42 32q0 34 -51 36q-5 -1 -12 -1.5t-17 -2.5l-2 4l26 21q69 7 69 42q0 22 -29 22q-24 0 -57 -13l-4 5l43 32q25 6 39 6q53 0 53 -29q0 -24 -77 -65zM40 4l404 454l14 -12
l-404 -454zM346 45l-8 -46q-11 -4 -21 -9.5t-21 -12.5l-2 1l16 66h-104l-2 5q5 7 11 13l13 13q25 23 61.5 53.5t85.5 68.5l5 -3l-29 -126h64l-34 -23h-35zM314 135q-25 -20 -42 -34.5t-25 -23.5l4 -10h65l20 86q-4 -3 -9 -7.5t-13 -10.5z" />
    <glyph glyph-name="questiondown" unicode="&#xbf;" horiz-adv-x="391" 
d="M-35 121q0 56 23 100q16 31 66 90q35 42 63.5 77t49.5 64l18 63q0 10 -6 19.5t-6 12.5q0 9 13 9q22 0 22 -56q0 -57 -55 -131q-17 -22 -42 -55.5t-59 -78.5q-54 -77 -54 -144q0 -71 65 -71q67 0 163 117q23 28 38.5 49t23.5 36q27 46 27 94v9q0 5 -1 10q27 6 27 -34
q0 -55 -42 -127q-37 -61 -84 -107q-81 -78 -149 -78q-50 0 -77 42q-24 37 -24 90zM153 636q0 16 10 30t25 14q27 0 27 -30q0 -13 -7.5 -26t-19.5 -13q-35 0 -35 25z" />
    <glyph glyph-name="Agrave" unicode="&#xc0;" horiz-adv-x="676" 
d="M666 6q0 -10 -18 -10q-12 0 -35 5q-36 47 -76 225q-42 -6 -118 -9q-42 -2 -71 -3.5t-46 -3.5q-14 -23 -34.5 -58t-49.5 -81q-63 -96 -127 -96q-83 0 -117 72q5 7 8 8q3 2 8 0q5 -1 10 -1q0 -30 49 -30q75 0 129 57q31 34 78 125q-8 1 -14.5 1.5t-12.5 0.5
q-7 0 -18.5 -2.5t-17.5 -2.5q-24 0 -24 14q0 7 108 19q50 82 115 249q58 147 58 177q0 3 -2 7.5t-2 7.5q0 13 31 13q10 0 38 -17q28 -16 28 -26q0 -8 -2 -23.5t-2 -23.5q0 -137 42 -336q17 -79 32 -137t29 -95q4 -12 13 -17.5t11 -8.5zM518 331q-29 174 -33 225l-1.5 21
l-0.5 7q-5 18 -12 24q-9 -17 -26.5 -60t-43.5 -114q-26 -69 -46.5 -116t-36.5 -75l213 5q0 6 -13 83zM471 770l-46 27q-2 1 -6.5 3.5t-11.5 6.5q-28 16 -28 31q0 16 20 21q22 4 34 -15l8 -8t16 -15q25 -24 25 -31q0 -4 -5 -14z" />
    <glyph glyph-name="Aacute" unicode="&#xc1;" horiz-adv-x="676" 
d="M666 6q0 -10 -18 -10q-12 0 -35 5q-36 47 -76 225q-42 -6 -118 -9q-42 -2 -71 -3.5t-46 -3.5q-14 -23 -34.5 -58t-49.5 -81q-63 -96 -127 -96q-83 0 -117 72q5 7 8 8q3 2 8 0q5 -1 10 -1q0 -30 49 -30q75 0 129 57q31 34 78 125q-8 1 -14.5 1.5t-12.5 0.5
q-7 0 -18.5 -2.5t-17.5 -2.5q-24 0 -24 14q0 7 108 19q50 82 115 249q58 147 58 177q0 3 -2 7.5t-2 7.5q0 13 31 13q10 0 38 -17q28 -16 28 -26q0 -8 -2 -23.5t-2 -23.5q0 -137 42 -336q17 -79 32 -137t29 -95q4 -12 13 -17.5t11 -8.5zM518 331q-29 174 -33 225l-1.5 21
l-0.5 7q-5 18 -12 24q-9 -17 -26.5 -60t-43.5 -114q-26 -69 -46.5 -116t-36.5 -75l213 5q0 6 -13 83zM589 838q0 -15 -28 -31q-2 -2 -6.5 -4t-11.5 -6l-46 -27l-5 8q-6 7 -6 12q0 7 25 31l9 9t15 14q12 19 34 15q12 -2 16 -9t4 -12z" />
    <glyph glyph-name="Acircumflex" unicode="&#xc2;" horiz-adv-x="676" 
d="M666 6q0 -10 -18 -10q-12 0 -35 5q-36 47 -76 225q-42 -6 -118 -9q-42 -2 -71 -3.5t-46 -3.5q-14 -23 -34.5 -58t-49.5 -81q-63 -96 -127 -96q-83 0 -117 72q5 7 8 8q3 2 8 0q5 -1 10 -1q0 -30 49 -30q75 0 129 57q31 34 78 125q-8 1 -14.5 1.5t-12.5 0.5
q-7 0 -18.5 -2.5t-17.5 -2.5q-24 0 -24 14q0 7 108 19q50 82 115 249q58 147 58 177q0 3 -2 7.5t-2 7.5q0 13 31 13q10 0 38 -17q28 -16 28 -26q0 -8 -2 -23.5t-2 -23.5q0 -137 42 -336q17 -79 32 -137t29 -95q4 -12 13 -17.5t11 -8.5zM518 331q-29 174 -33 225l-1.5 21
l-0.5 7q-5 18 -12 24q-9 -17 -26.5 -60t-43.5 -114q-26 -69 -46.5 -116t-36.5 -75l213 5q0 6 -13 83zM565 770q-6 0 -16 15l-7.5 12.5t-9.5 17.5q-10 16 -24 16t-30 -16l-8 -8t-10 -9.5t-9.5 -7t-7.5 -1.5q-7 3 -5 12q3 14 32 41q28 27 41 27q7 1 32 -36q25 -38 27 -54
q1 -4 -5 -9z" />
    <glyph glyph-name="Atilde" unicode="&#xc3;" horiz-adv-x="676" 
d="M666 6q0 -10 -18 -10q-12 0 -35 5q-36 47 -76 225q-42 -6 -118 -9q-42 -2 -71 -3.5t-46 -3.5q-14 -23 -34.5 -58t-49.5 -81q-63 -96 -127 -96q-83 0 -117 72q5 7 8 8q3 2 8 0q5 -1 10 -1q0 -30 49 -30q75 0 129 57q31 34 78 125q-8 1 -14.5 1.5t-12.5 0.5
q-7 0 -18.5 -2.5t-17.5 -2.5q-24 0 -24 14q0 7 108 19q50 82 115 249q58 147 58 177q0 3 -2 7.5t-2 7.5q0 13 31 13q10 0 38 -17q28 -16 28 -26q0 -8 -2 -23.5t-2 -23.5q0 -137 42 -336q17 -79 32 -137t29 -95q4 -12 13 -17.5t11 -8.5zM518 331q-29 174 -33 225l-1.5 21
l-0.5 7q-5 18 -12 24q-9 -17 -26.5 -60t-43.5 -114q-26 -69 -46.5 -116t-36.5 -75l213 5q0 6 -13 83zM545 770q-8 5 -20 15t-26 25q-20 27 -38 27q-13 0 -19 -20q-5 -15 -9 -15q-5 0 -5 18q0 39 26 45q17 4 52 -26q8 -9 17.5 -19.5t21.5 -13.5q2 -1 6 -1q11 0 34 38
q2 2 3 3.5l1 1.5q4 -3 4 -16q0 -26 -14 -45t-27 -19q-3 0 -7 2z" />
    <glyph glyph-name="Adieresis" unicode="&#xc4;" horiz-adv-x="676" 
d="M666 6q0 -10 -18 -10q-12 0 -35 5q-36 47 -76 225q-42 -6 -118 -9q-42 -2 -71 -3.5t-46 -3.5q-14 -23 -34.5 -58t-49.5 -81q-63 -96 -127 -96q-83 0 -117 72q5 7 8 8q3 2 8 0q5 -1 10 -1q0 -30 49 -30q75 0 129 57q31 34 78 125q-8 1 -14.5 1.5t-12.5 0.5
q-7 0 -18.5 -2.5t-17.5 -2.5q-24 0 -24 14q0 7 108 19q50 82 115 249q58 147 58 177q0 3 -2 7.5t-2 7.5q0 13 31 13q10 0 38 -17q28 -16 28 -26q0 -8 -2 -23.5t-2 -23.5q0 -137 42 -336q17 -79 32 -137t29 -95q4 -12 13 -17.5t11 -8.5zM518 331q-29 174 -33 225l-1.5 21
l-0.5 7q-5 18 -12 24q-9 -17 -26.5 -60t-43.5 -114q-26 -69 -46.5 -116t-36.5 -75l213 5q0 6 -13 83zM567 807q0 -37 -25 -37q-16 0 -28 13t-12 29q0 10 10.5 21t20.5 11q34 0 34 -37zM490 806q0 -37 -25 -37q-16 0 -28 13t-12 29q0 10 10.5 21t20.5 11q34 0 34 -37z" />
    <glyph glyph-name="Aring" unicode="&#xc5;" horiz-adv-x="676" 
d="M666 6q0 -10 -18 -10q-12 0 -35 5q-36 47 -76 225q-42 -6 -118 -9q-42 -2 -71 -3.5t-46 -3.5q-14 -23 -34.5 -58t-49.5 -81q-63 -96 -127 -96q-83 0 -117 72q5 7 8 8q3 2 8 0q5 -1 10 -1q0 -30 49 -30q75 0 129 57q31 34 78 125q-8 1 -14.5 1.5t-12.5 0.5
q-7 0 -18.5 -2.5t-17.5 -2.5q-24 0 -24 14q0 7 108 19q50 82 115 249q58 147 58 177q0 3 -2 7.5t-2 7.5q0 13 31 13q10 0 38 -17q28 -16 28 -26q0 -8 -2 -23.5t-2 -23.5q0 -137 42 -336q17 -79 32 -137t29 -95q4 -12 13 -17.5t11 -8.5zM518 331q-29 174 -33 225l-1.5 21
l-0.5 7q-5 18 -12 24q-9 -17 -26.5 -60t-43.5 -114q-26 -69 -46.5 -116t-36.5 -75l213 5q0 6 -13 83zM514 770q-34 0 -40 36q-6 32 20 73q27 40 59 40q33 0 41 -36q5 -34 -23 -73q-27 -40 -57 -40zM545 887q-16 0 -33 -26q-15 -26 -12 -44q3 -17 17 -17q19 0 35 25
q17 26 14 44t-21 18z" />
    <glyph glyph-name="AE" unicode="&#xc6;" horiz-adv-x="1145" 
d="M518 331q-29 174 -33 225l-1.5 21l-0.5 7q-5 18 -12 24q-9 -17 -26.5 -60t-43.5 -114q-26 -69 -46.5 -116t-36.5 -75l213 5q0 6 -13 83zM1139 108q0 -51 -124 -90q-99 -31 -168 -31q-124 0 -206 49l1 -4q4 -12 13 -17.5t11 -8.5q0 -10 -18 -10q-12 0 -35 5
q-22 30 -47 112q-10 21 -13 47q-4 15 -8 31.5t-8 34.5q-42 -6 -118 -9q-42 -2 -71 -3.5t-46 -3.5q-14 -23 -34.5 -58t-49.5 -81q-63 -96 -127 -96q-83 0 -117 72q5 7 8 8q3 2 8 0q5 -1 10 -1q0 -30 49 -30q75 0 129 57q31 34 78 125q-8 1 -14.5 1.5t-12.5 0.5
q-7 0 -18.5 -2.5t-17.5 -2.5q-24 0 -24 14q0 7 108 19q50 82 115 249q58 147 58 177q0 3 -2 7.5t-2 7.5q0 13 31 13q10 0 38 -17q28 -16 28 -26q0 -8 -2 -23.5t-2 -23.5q0 -135 40 -328q37 52 144 107q-49 17 -73 38q-29 27 -29 73q0 101 154 152q109 36 235 36q46 0 64 -7
q35 -11 35 -46q0 -30 -12 -30q-12 11 -34 28q-17 9 -48 9q-109 0 -215 -30q-151 -43 -151 -124q0 -35 51 -54q36 -13 80 -13q13 0 93 6q35 2 56.5 3.5t29.5 0.5q13 -9 12 -30q-2 -21 -16 -26q-23 14 -35 14q-88 0 -187 -40q-116 -47 -144 -114q9 -39 17 -72t16 -61
q73 -60 229 -60q38 0 97 10q67 10 93 24q66 34 66 42q0 2 -3 2v19q35 0 35 -21z" />
    <glyph glyph-name="Ccedilla" unicode="&#xc7;" horiz-adv-x="427" 
d="M171 -58q30 -16 34 -46q4 -25 -29 -40q-52 -24 -53 -25q0 -1 -2 -1q-4 0 -6 14q-1 13 0 17q8 2 16 4.5t16 4.5q25 7 23 24q-2 13 -15 15.5t-27 4.5q-3 3 -4 6q-1 4 1 10q11 14 41 59q-85 8 -128 75q-38 61 -38 149q0 110 43 245q52 165 129 215q19 13 58 13q55 0 107 -31
q33 -19 44 -40q15 -27 15 -85q0 -35 -12 -99q-15 -80 -34 -80q-13 0 -21 20q-7 15 -7 30q0 27 17 92q17 66 17 96q0 33 -42 53q-34 17 -70 17q-75 0 -136 -168q-57 -155 -57 -304q0 -168 124 -168q111 0 214 79l16 29q14 -2 14 -12q0 -5 -9 -27q-35 -44 -96 -71
q-63 -28 -119 -29q-27 -30 -27 -41q0 -4 3 -5z" />
    <glyph glyph-name="Egrave" unicode="&#xc8;" horiz-adv-x="596" 
d="M587 107q0 -51 -124 -90q-99 -31 -168 -31q-110 0 -192 41q-103 52 -103 153q0 70 55 122q38 36 116 76q-49 17 -73 38q-29 27 -29 73q0 101 154 152q109 36 235 36q46 0 64 -7q35 -11 35 -46q0 -30 -12 -30q-12 11 -34 28q-17 9 -48 9q-109 0 -215 -30
q-151 -43 -151 -124q0 -35 51 -54q36 -13 80 -13q13 0 93 6q35 2 56.5 3.5t29.5 0.5q13 -9 12 -30q-2 -21 -16 -26q-23 14 -35 14q-87 0 -195 -44q-145 -60 -145 -158q0 -81 102 -118q73 -27 169 -27q38 0 97 10q67 10 93 24q66 34 66 42q0 2 -3 2v19q35 0 35 -21zM353 770
l-46 27q-2 1 -6.5 3.5t-11.5 6.5q-28 16 -28 31q0 16 20 21q22 4 34 -15l8 -8t16 -15q25 -24 25 -31q0 -4 -5 -14z" />
    <glyph glyph-name="Eacute" unicode="&#xc9;" horiz-adv-x="596" 
d="M587 107q0 -51 -124 -90q-99 -31 -168 -31q-110 0 -192 41q-103 52 -103 153q0 70 55 122q38 36 116 76q-49 17 -73 38q-29 27 -29 73q0 101 154 152q109 36 235 36q46 0 64 -7q35 -11 35 -46q0 -30 -12 -30q-12 11 -34 28q-17 9 -48 9q-109 0 -215 -30
q-151 -43 -151 -124q0 -35 51 -54q36 -13 80 -13q13 0 93 6q35 2 56.5 3.5t29.5 0.5q13 -9 12 -30q-2 -21 -16 -26q-23 14 -35 14q-87 0 -195 -44q-145 -60 -145 -158q0 -81 102 -118q73 -27 169 -27q38 0 97 10q67 10 93 24q66 34 66 42q0 2 -3 2v19q35 0 35 -21zM454 838
q0 -15 -28 -31q-2 -2 -6.5 -4t-11.5 -6l-46 -27l-5 8q-6 7 -6 12q0 7 25 31l9 9t15 14q12 19 34 15q12 -2 16 -9t4 -12z" />
    <glyph glyph-name="Ecircumflex" unicode="&#xca;" horiz-adv-x="596" 
d="M587 107q0 -51 -124 -90q-99 -31 -168 -31q-110 0 -192 41q-103 52 -103 153q0 70 55 122q38 36 116 76q-49 17 -73 38q-29 27 -29 73q0 101 154 152q109 36 235 36q46 0 64 -7q35 -11 35 -46q0 -30 -12 -30q-12 11 -34 28q-17 9 -48 9q-109 0 -215 -30
q-151 -43 -151 -124q0 -35 51 -54q36 -13 80 -13q13 0 93 6q35 2 56.5 3.5t29.5 0.5q13 -9 12 -30q-2 -21 -16 -26q-23 14 -35 14q-87 0 -195 -44q-145 -60 -145 -158q0 -81 102 -118q73 -27 169 -27q38 0 97 10q67 10 93 24q66 34 66 42q0 2 -3 2v19q35 0 35 -21zM453 770
q-6 0 -16 15l-7.5 12.5t-9.5 17.5q-10 16 -24 16t-30 -16l-8 -8t-10 -9.5t-9.5 -7t-7.5 -1.5q-7 3 -5 12q3 14 32 41q28 27 41 27q7 1 32 -36q25 -38 27 -54q1 -4 -5 -9z" />
    <glyph glyph-name="Edieresis" unicode="&#xcb;" horiz-adv-x="596" 
d="M587 107q0 -51 -124 -90q-99 -31 -168 -31q-110 0 -192 41q-103 52 -103 153q0 70 55 122q38 36 116 76q-49 17 -73 38q-29 27 -29 73q0 101 154 152q109 36 235 36q46 0 64 -7q35 -11 35 -46q0 -30 -12 -30q-12 11 -34 28q-17 9 -48 9q-109 0 -215 -30
q-151 -43 -151 -124q0 -35 51 -54q36 -13 80 -13q13 0 93 6q35 2 56.5 3.5t29.5 0.5q13 -9 12 -30q-2 -21 -16 -26q-23 14 -35 14q-87 0 -195 -44q-145 -60 -145 -158q0 -81 102 -118q73 -27 169 -27q38 0 97 10q67 10 93 24q66 34 66 42q0 2 -3 2v19q35 0 35 -21zM436 807
q0 -37 -25 -37q-16 0 -28 13t-12 29q0 10 10.5 21t20.5 11q34 0 34 -37zM359 806q0 -37 -25 -37q-16 0 -28 13t-12 29q0 10 10.5 21t20.5 11q34 0 34 -37z" />
    <glyph glyph-name="Igrave" unicode="&#xcc;" horiz-adv-x="301" 
d="M325 637q-18 -8 -28.5 -12t-14.5 -5l-100 -17q-22 -70 -35 -231q-12 -144 -12 -264q0 -68 5 -83q-6 0 3.5 0.5t35.5 1.5q77 3 77 -11q-9 -10 -49 -19q-58 -14 -138 -14q-94 0 -95 13q0 9 53 15l71 8q0 6 -1 15t-2 19t-2 19.5t-1 15.5q0 10 3 78.5t8 199.5q9 222 6 234
q-61 0 -106 3q8 7 18 13.5t23 13.5q169 18 184 18h17t24 -1t24 -1h18q9 0 14 -9zM114 770l-46 27q-2 1 -6.5 3.5t-11.5 6.5q-28 16 -28 31q0 16 20 21q22 4 34 -15l8 -8t16 -15q25 -24 25 -31q0 -4 -5 -14z" />
    <glyph glyph-name="Iacute" unicode="&#xcd;" horiz-adv-x="301" 
d="M325 637q-18 -8 -28.5 -12t-14.5 -5l-100 -17q-22 -70 -35 -231q-12 -144 -12 -264q0 -68 5 -83q-6 0 3.5 0.5t35.5 1.5q77 3 77 -11q-9 -10 -49 -19q-58 -14 -138 -14q-94 0 -95 13q0 9 53 15l71 8q0 6 -1 15t-2 19t-2 19.5t-1 15.5q0 10 3 78.5t8 199.5q9 222 6 234
q-61 0 -106 3q8 7 18 13.5t23 13.5q169 18 184 18h17t24 -1t24 -1h18q9 0 14 -9zM270 838q0 -15 -28 -31q-2 -2 -6.5 -4t-11.5 -6l-46 -27l-5 8q-6 7 -6 12q0 7 25 31l9 9t15 14q12 19 34 15q12 -2 16 -9t4 -12z" />
    <glyph glyph-name="Icircumflex" unicode="&#xce;" horiz-adv-x="301" 
d="M325 637q-18 -8 -28.5 -12t-14.5 -5l-100 -17q-22 -70 -35 -231q-12 -144 -12 -264q0 -68 5 -83q-6 0 3.5 0.5t35.5 1.5q77 3 77 -11q-9 -10 -49 -19q-58 -14 -138 -14q-94 0 -95 13q0 9 53 15l71 8q0 6 -1 15t-2 19t-2 19.5t-1 15.5q0 10 3 78.5t8 199.5q9 222 6 234
q-61 0 -106 3q8 7 18 13.5t23 13.5q169 18 184 18h17t24 -1t24 -1h18q9 0 14 -9zM228 770q-6 0 -16 15l-7.5 12.5t-9.5 17.5q-10 16 -24 16t-30 -16l-8 -8t-10 -9.5t-9.5 -7t-7.5 -1.5q-7 3 -5 12q3 14 32 41q28 27 41 27q7 1 32 -36q25 -38 27 -54q1 -4 -5 -9z" />
    <glyph glyph-name="Idieresis" unicode="&#xcf;" horiz-adv-x="301" 
d="M325 637q-18 -8 -28.5 -12t-14.5 -5l-100 -17q-22 -70 -35 -231q-12 -144 -12 -264q0 -68 5 -83q-6 0 3.5 0.5t35.5 1.5q77 3 77 -11q-9 -10 -49 -19q-58 -14 -138 -14q-94 0 -95 13q0 9 53 15l71 8q0 6 -1 15t-2 19t-2 19.5t-1 15.5q0 10 3 78.5t8 199.5q9 222 6 234
q-61 0 -106 3q8 7 18 13.5t23 13.5q169 18 184 18h17t24 -1t24 -1h18q9 0 14 -9zM233 807q0 -37 -25 -37q-16 0 -28 13t-12 29q0 10 10.5 21t20.5 11q34 0 34 -37zM156 806q0 -37 -25 -37q-16 0 -28 13t-12 29q0 10 10.5 21t20.5 11q34 0 34 -37z" />
    <glyph glyph-name="Eth" unicode="&#xd0;" horiz-adv-x="201" 
d="M123 372q-22 -34 -22 -57q0 -5 2 -13q4 -20 32 -69q10 6 29 9q19 4 27 0q11 -5 14 -15q1 -2 -7 -4q1 1 -17 1q-9 1 -13 -1q-6 -5 -7.5 -8.5t-6.5 -14.5q25 -41 33 -75q11 -46 2 -76q-6 -21 -21 -41q-18 -21 -36 -21t-34 19.5t-21 42.5q-4 12 -4 30q0 63 47 134
q-14 27 -29 52q-18 34 -18 55q0 26 37 84q63 99 63 184q0 11 -2 21q-7 22 -25 22t-39 -49q-8 -20 -14 -37t-9 -33q-44 -224 -57 -468q-1 -43 -13 -43q-14 0 -17 16q-3 10 0 38q2 18 3 41l21 234q8 69 18 126.5t23 105.5q33 119 82 119q15 0 26.5 -8.5t19 -21t10.5 -27.5
t2 -30q0 -95 -79 -222zM134 182q-39 -41 -39 -96q0 -7 2 -17q14 -59 37 -59q32 0 32 69q0 17 -3 31q-4 21 -29 72z" />
    <glyph glyph-name="Ntilde" unicode="&#xd1;" horiz-adv-x="534" 
d="M533 683q0 -3 -2 -9t-5 -13t-6 -13.5t-4 -9.5q-11 -45 -21 -115t-19 -166q-8 -92 -12.5 -168t-4.5 -138q0 -6 2.5 -17t2.5 -16q0 -23 -45 -23q-41 0 -63 37q-8 10 -33 90q-26 78 -49.5 186.5t-45.5 251.5q-7 -26 -17 -89t-24 -163q-22 -160 -51 -232q-41 -101 -120 -101
q-65 0 -65 33q0 16 13 16q6 0 10 -4q-4 -4 -4 -7q0 -12 27 -12q117 0 172 369q30 198 30 282q0 13 -1 16q16 25 39 25q52 0 52 -36q0 -247 42 -434q39 -174 79 -174q17 0 19 54l6 135q4 45 10 110t14 153q17 148 54 197q20 -3 20 -15zM413 770q-8 5 -20 15t-26 25
q-20 27 -38 27q-13 0 -19 -20q-5 -15 -9 -15q-5 0 -5 18q0 39 26 45q17 4 52 -26q8 -9 17.5 -19.5t21.5 -13.5q2 -1 6 -1q11 0 34 38q2 2 3 3.5l1 1.5q4 -3 4 -16q0 -26 -14 -45t-27 -19q-3 0 -7 2z" />
    <glyph glyph-name="Ograve" unicode="&#xd2;" horiz-adv-x="436" 
d="M412 422q0 -158 -37 -269q-56 -167 -180 -167q-95 0 -148 80q-47 71 -47 170q0 98 23 201q27 118 76 186q8 12 16.5 24t16.5 23q24 30 45 30q5 0 23 -8q8 5 13 5q199 -13 199 -275zM375 427q0 90 -26 153q-36 86 -115 86q-77 0 -134 -172q-47 -143 -47 -256
q0 -221 135 -221q187 0 187 410zM199 770l-46 27q-2 1 -6.5 3.5t-11.5 6.5q-28 16 -28 31q0 16 20 21q22 4 34 -15l8 -8t16 -15q25 -24 25 -31q0 -4 -5 -14z" />
    <glyph glyph-name="Oacute" unicode="&#xd3;" horiz-adv-x="436" 
d="M412 422q0 -158 -37 -269q-56 -167 -180 -167q-95 0 -148 80q-47 71 -47 170q0 98 23 201q27 118 76 186q8 12 16.5 24t16.5 23q24 30 45 30q5 0 23 -8q8 5 13 5q199 -13 199 -275zM375 427q0 90 -26 153q-36 86 -115 86q-77 0 -134 -172q-47 -143 -47 -256
q0 -221 135 -221q187 0 187 410zM368 838q0 -15 -28 -31q-2 -2 -6.5 -4t-11.5 -6l-46 -27l-5 8q-6 7 -6 12q0 7 25 31l9 9t15 14q12 19 34 15q12 -2 16 -9t4 -12z" />
    <glyph glyph-name="Ocircumflex" unicode="&#xd4;" horiz-adv-x="436" 
d="M412 422q0 -158 -37 -269q-56 -167 -180 -167q-95 0 -148 80q-47 71 -47 170q0 98 23 201q27 118 76 186q8 12 16.5 24t16.5 23q24 30 45 30q5 0 23 -8q8 5 13 5q199 -13 199 -275zM375 427q0 90 -26 153q-36 86 -115 86q-77 0 -134 -172q-47 -143 -47 -256
q0 -221 135 -221q187 0 187 410zM329 770q-6 0 -16 15l-7.5 12.5t-9.5 17.5q-10 16 -24 16t-30 -16l-8 -8t-10 -9.5t-9.5 -7t-7.5 -1.5q-7 3 -5 12q3 14 32 41q28 27 41 27q7 1 32 -36q25 -38 27 -54q1 -4 -5 -9z" />
    <glyph glyph-name="Otilde" unicode="&#xd5;" horiz-adv-x="436" 
d="M412 422q0 -158 -37 -269q-56 -167 -180 -167q-95 0 -148 80q-47 71 -47 170q0 98 23 201q27 118 76 186q8 12 16.5 24t16.5 23q24 30 45 30q5 0 23 -8q8 5 13 5q199 -13 199 -275zM375 427q0 90 -26 153q-36 86 -115 86q-77 0 -134 -172q-47 -143 -47 -256
q0 -221 135 -221q187 0 187 410zM290 770q-8 5 -20 15t-26 25q-20 27 -38 27q-13 0 -19 -20q-5 -15 -9 -15q-5 0 -5 18q0 39 26 45q17 4 52 -26q8 -9 17.5 -19.5t21.5 -13.5q2 -1 6 -1q11 0 34 38q2 2 3 3.5l1 1.5q4 -3 4 -16q0 -26 -14 -45t-27 -19q-3 0 -7 2z" />
    <glyph glyph-name="Odieresis" unicode="&#xd6;" horiz-adv-x="436" 
d="M412 422q0 -158 -37 -269q-56 -167 -180 -167q-95 0 -148 80q-47 71 -47 170q0 98 23 201q27 118 76 186q8 12 16.5 24t16.5 23q24 30 45 30q5 0 23 -8q8 5 13 5q199 -13 199 -275zM375 427q0 90 -26 153q-36 86 -115 86q-77 0 -134 -172q-47 -143 -47 -256
q0 -221 135 -221q187 0 187 410zM343 807q0 -37 -25 -37q-16 0 -28 13t-12 29q0 10 10.5 21t20.5 11q34 0 34 -37zM266 806q0 -37 -25 -37q-16 0 -28 13t-12 29q0 10 10.5 21t20.5 11q34 0 34 -37z" />
    <glyph glyph-name="multiply" unicode="&#xd7;" horiz-adv-x="600" 
d="M299 219l-190 -196l-34 35l191 195l-191 195l34 35l190 -196l192 196l34 -35l-192 -195l192 -195l-34 -35z" />
    <glyph glyph-name="Oslash" unicode="&#xd8;" horiz-adv-x="509" 
d="M105 227q5 -209 135 -209q187 0 187 410v16t-1 16zM424 490q-4 36 -13.5 65.5t-23.5 52.5q-38 59 -101 59q-77 0 -134 -172q-22 -65 -33.5 -124t-13.5 -113zM52 220v17q0 98 23 201q27 118 76 186q8 12 16.5 24t16.5 23q24 30 45 30q5 0 23 -8q8 5 13 5q161 -11 192 -184
l72 52l15 -20l-83 -60q3 -30 3 -63q0 -158 -37 -269q-56 -167 -180 -167q-82 0 -135 62q-47 55 -57 141l-59 -43l-14 21z" />
    <glyph glyph-name="Ugrave" unicode="&#xd9;" horiz-adv-x="542" 
d="M534 581q-4 -6 -9 -18t-10 -30q-10 -36 -12 -53l-32 -312v-101q3 -91 22 -106q-7 -5 -21 -5q-32 0 -38 78l-1.5 32l-4.5 96q-23 -48 -38 -75.5t-22 -37.5q-45 -63 -103 -63q-156 0 -156 247q0 92 39 250q-73 -56 -113 -56q-27 0 -52 25q5 -1 9 -1h9q121 0 216 210
q52 -16 52 -32q0 -7 -17 -27q-17 -21 -20 -27q-75 -179 -75 -351q0 -87 14 -134q26 -77 94 -77q56 0 104 92q16 29 29 63.5t24 76.5q38 144 38 274q0 47 -4 66q-3 10 -3 18q6 11 19 11q18 0 62 -33zM353 770l-46 27q-2 1 -6.5 3.5t-11.5 6.5q-28 16 -28 31q0 16 20 21
q22 4 34 -15l8 -8t16 -15q25 -24 25 -31q0 -4 -5 -14z" />
    <glyph glyph-name="Uacute" unicode="&#xda;" horiz-adv-x="542" 
d="M534 581q-4 -6 -9 -18t-10 -30q-10 -36 -12 -53l-32 -312v-101q3 -91 22 -106q-7 -5 -21 -5q-32 0 -38 78l-1.5 32l-4.5 96q-23 -48 -38 -75.5t-22 -37.5q-45 -63 -103 -63q-156 0 -156 247q0 92 39 250q-73 -56 -113 -56q-27 0 -52 25q5 -1 9 -1h9q121 0 216 210
q52 -16 52 -32q0 -7 -17 -27q-17 -21 -20 -27q-75 -179 -75 -351q0 -87 14 -134q26 -77 94 -77q56 0 104 92q16 29 29 63.5t24 76.5q38 144 38 274q0 47 -4 66q-3 10 -3 18q6 11 19 11q18 0 62 -33zM512 838q0 -15 -28 -31q-2 -2 -6.5 -4t-11.5 -6l-46 -27l-5 8q-6 7 -6 12
q0 7 25 31l9 9t15 14q12 19 34 15q12 -2 16 -9t4 -12z" />
    <glyph glyph-name="Ucircumflex" unicode="&#xdb;" horiz-adv-x="542" 
d="M534 581q-4 -6 -9 -18t-10 -30q-10 -36 -12 -53l-32 -312v-101q3 -91 22 -106q-7 -5 -21 -5q-32 0 -38 78l-1.5 32l-4.5 96q-23 -48 -38 -75.5t-22 -37.5q-45 -63 -103 -63q-156 0 -156 247q0 92 39 250q-73 -56 -113 -56q-27 0 -52 25q5 -1 9 -1h9q121 0 216 210
q52 -16 52 -32q0 -7 -17 -27q-17 -21 -20 -27q-75 -179 -75 -351q0 -87 14 -134q26 -77 94 -77q56 0 104 92q16 29 29 63.5t24 76.5q38 144 38 274q0 47 -4 66q-3 10 -3 18q6 11 19 11q18 0 62 -33zM453 770q-6 0 -16 15l-7.5 12.5t-9.5 17.5q-10 16 -24 16t-30 -16l-8 -8
t-10 -9.5t-9.5 -7t-7.5 -1.5q-7 3 -5 12q3 14 32 41q28 27 41 27q7 1 32 -36q25 -38 27 -54q1 -4 -5 -9z" />
    <glyph glyph-name="Udieresis" unicode="&#xdc;" horiz-adv-x="542" 
d="M534 581q-4 -6 -9 -18t-10 -30q-10 -36 -12 -53l-32 -312v-101q3 -91 22 -106q-7 -5 -21 -5q-32 0 -38 78l-1.5 32l-4.5 96q-23 -48 -38 -75.5t-22 -37.5q-45 -63 -103 -63q-156 0 -156 247q0 92 39 250q-73 -56 -113 -56q-27 0 -52 25q5 -1 9 -1h9q121 0 216 210
q52 -16 52 -32q0 -7 -17 -27q-17 -21 -20 -27q-75 -179 -75 -351q0 -87 14 -134q26 -77 94 -77q56 0 104 92q16 29 29 63.5t24 76.5q38 144 38 274q0 47 -4 66q-3 10 -3 18q6 11 19 11q18 0 62 -33zM465 807q0 -37 -25 -37q-16 0 -28 13t-12 29q0 10 10.5 21t20.5 11
q34 0 34 -37zM388 806q0 -37 -25 -37q-16 0 -28 13t-12 29q0 10 10.5 21t20.5 11q34 0 34 -37z" />
    <glyph glyph-name="Yacute" unicode="&#xdd;" horiz-adv-x="402" 
d="M389 636q-12 -49 -20 -86.5t-12 -63.5q-8 -54 -12 -118t-4 -141q0 -22 1.5 -54t3.5 -75q6 -86 6 -128q0 -84 -49 -158q-56 -83 -135 -83q-40 0 -128 32q-99 37 -99 69q0 18 26 18q9 0 67 -46t97 -46q175 0 175 291q0 26 -1.5 65.5t-5.5 93.5q-34 -100 -51 -130
q-44 -78 -103 -78q-75 0 -109 66q-27 52 -27 133q0 29 3 73t8 104q12 118 12 177q0 6 -1 19t-1 19q0 31 18 31q8 0 49 -34q0 -6 -5 -28q-4 -12 -5.5 -19.5t-2.5 -10.5q-14 -88 -21.5 -169.5t-7.5 -159.5q0 -177 81 -177q55 0 105 99q44 87 58 195q8 69 15.5 150t12.5 177
q1 19 28 18q33 -1 34 -25zM318 838q0 -15 -28 -31q-2 -2 -6.5 -4t-11.5 -6l-46 -27l-5 8q-6 7 -6 12q0 7 25 31l9 9t15 14q12 19 34 15q12 -2 16 -9t4 -12z" />
    <glyph glyph-name="Thorn" unicode="&#xde;" horiz-adv-x="165" 
d="M111 82q0 -34 -14 -64q-18 -34 -51 -34q-25 0 -44 16q-20 17 -21 17q-3 0 -13 -19t-18 -19q-5 0 -5 6q0 7 10 31q12 31 18 57q17 68 27.5 127.5t15.5 112.5q-1 13 0.5 28t4.5 34q4 9 21 9q30 0 30 -19q0 -3 -1.5 -10t-3.5 -15t-3.5 -15.5t-1.5 -12.5q0 -38 24 -116
q25 -76 25 -114zM76 86q0 32 -20 107q-12 41 -21 61q-9 -40 -21 -88t-27 -105q0 -14 15 -33q15 -20 28 -20q46 0 46 78z" />
    <glyph glyph-name="germandbls" unicode="&#xdf;" horiz-adv-x="201" 
d="M123 372q-22 -34 -22 -57q0 -5 2 -13q4 -20 32 -69q10 6 29 9q19 4 27 0q11 -5 14 -15q1 -2 -7 -4q1 1 -17 1q-9 1 -13 -1q-6 -5 -7.5 -8.5t-6.5 -14.5q25 -41 33 -75q11 -46 2 -76q-6 -21 -21 -41q-18 -21 -36 -21t-34 19.5t-21 42.5q-4 12 -4 30q0 63 47 134
q-14 27 -29 52q-18 34 -18 55q0 26 37 84q63 99 63 184q0 11 -2 21q-7 22 -25 22t-39 -49q-8 -20 -14 -37t-9 -33q-44 -224 -57 -468q0 -5 -0.5 -12t-1.5 -17q-5 -48 -9 -96t-8 -97q-17 -186 -19 -186q-25 0 -26 7q0 -1 8.5 101.5t25.5 310.5q2 18 3 41l21 234
q8 69 18 126.5t23 105.5q33 119 82 119q15 0 26.5 -8.5t19 -21t10.5 -27.5t2 -30q0 -95 -79 -222zM134 182q-39 -41 -39 -96q0 -7 2 -17q14 -59 37 -59q32 0 32 69q0 17 -3 31q-4 21 -29 72z" />
    <glyph glyph-name="agrave" unicode="&#xe0;" 
d="M99 280q-4 46 -25 46q-17 0 -30 -48q-4 -11 -9 -29t-12 -41q-16 -61 -16 -151q0 -17 7 -32q9 -19 23 -19q19 11 40 77q8 26 14 48.5t8 40.5l12 92zM160 0q-37 0 -61 73q-26 -93 -67 -93q-59 0 -56 146q2 39 25 130q29 104 49 104q45 0 56 -23l18 -36l35 -12
q-25 -73 -34 -179q-2 -23 4 -48q8 -35 25 -35q34 0 93 246q6 23 14 23t8 -15q0 -37 -37 -151q-42 -130 -72 -130zM83 514l-46 27q-2 1 -6.5 3.5t-11.5 6.5q-27 16 -27 31q0 17 19 21q22 4 34 -15l8 -8t16 -15q25 -24 25 -31q0 -4 -5 -14z" />
    <glyph glyph-name="aacute" unicode="&#xe1;" 
d="M99 280q-4 46 -25 46q-17 0 -30 -48q-4 -11 -9 -29t-12 -41q-16 -61 -16 -151q0 -17 7 -32q9 -19 23 -19q19 11 40 77q8 26 14 48.5t8 40.5l12 92zM160 0q-37 0 -61 73q-26 -93 -67 -93q-59 0 -56 146q2 39 25 130q29 104 49 104q45 0 56 -23l18 -36l35 -12
q-25 -73 -34 -179q-2 -23 4 -48q8 -35 25 -35q34 0 93 246q6 23 14 23t8 -15q0 -37 -37 -151q-42 -130 -72 -130zM224 582q0 -15 -28 -31q-2 -2 -6.5 -4t-11.5 -6l-46 -27l-5 8q-6 7 -6 12q0 7 25 31l9 9t15 14q12 19 34 15q12 -2 16 -9t4 -12z" />
    <glyph glyph-name="acircumflex" unicode="&#xe2;" 
d="M99 280q-4 46 -25 46q-17 0 -30 -48q-4 -11 -9 -29t-12 -41q-16 -61 -16 -151q0 -17 7 -32q9 -19 23 -19q19 11 40 77q8 26 14 48.5t8 40.5l12 92zM160 0q-37 0 -61 73q-26 -93 -67 -93q-59 0 -56 146q2 39 25 130q29 104 49 104q45 0 56 -23l18 -36l35 -12
q-25 -73 -34 -179q-2 -23 4 -48q8 -35 25 -35q34 0 93 246q6 23 14 23t8 -15q0 -37 -37 -151q-42 -130 -72 -130zM195 514q-6 0 -16 15l-7.5 12.5t-9.5 17.5q-10 16 -24 16t-30 -16l-8 -8t-10 -9.5t-9.5 -7t-7.5 -1.5q-7 3 -5 12q3 14 32 41q28 27 41 27q7 1 32 -36
q25 -38 27 -54q1 -4 -5 -9z" />
    <glyph glyph-name="atilde" unicode="&#xe3;" 
d="M99 280q-4 46 -25 46q-17 0 -30 -48q-4 -11 -9 -29t-12 -41q-16 -61 -16 -151q0 -17 7 -32q9 -19 23 -19q19 11 40 77q8 26 14 48.5t8 40.5l12 92zM160 0q-37 0 -61 73q-26 -93 -67 -93q-59 0 -56 146q2 39 25 130q29 104 49 104q45 0 56 -23l18 -36l35 -12
q-25 -73 -34 -179q-2 -23 4 -48q8 -35 25 -35q34 0 93 246q6 23 14 23t8 -15q0 -37 -37 -151q-42 -130 -72 -130zM160 514q-8 5 -20 15t-26 25q-20 27 -38 27q-13 0 -19 -20q-5 -15 -9 -15q-5 0 -5 18q0 39 26 45q17 4 52 -26q8 -9 17.5 -19.5t21.5 -13.5q2 -1 6 -1
q11 0 34 38q2 2 3 3.5l1 1.5q4 -3 4 -16q0 -26 -14 -45t-27 -19q-3 0 -7 2z" />
    <glyph glyph-name="adieresis" unicode="&#xe4;" 
d="M99 280q-4 46 -25 46q-17 0 -30 -48q-4 -11 -9 -29t-12 -41q-16 -61 -16 -151q0 -17 7 -32q9 -19 23 -19q19 11 40 77q8 26 14 48.5t8 40.5l12 92zM160 0q-37 0 -61 73q-26 -93 -67 -93q-59 0 -56 146q2 39 25 130q29 104 49 104q45 0 56 -23l18 -36l35 -12
q-25 -73 -34 -179q-2 -23 4 -48q8 -35 25 -35q34 0 93 246q6 23 14 23t8 -15q0 -37 -37 -151q-42 -130 -72 -130zM162 554q0 -37 -25 -37q-16 0 -28 13t-12 29q0 10 10.5 21t20.5 11q34 0 34 -37zM85 553q0 -37 -25 -37q-16 0 -28 13t-12 29q0 10 10.5 21t20.5 11
q34 0 34 -37z" />
    <glyph glyph-name="aring" unicode="&#xe5;" 
d="M269 281q0 -37 -37 -151q-42 -130 -72 -130q-37 0 -61 73q-26 -93 -67 -93q-59 0 -56 146q2 39 25 130q29 104 49 104q45 0 56 -23l18 -36l35 -12q-25 -73 -34 -179q-2 -23 4 -48q8 -35 25 -35q34 0 93 246q6 23 14 23t8 -15zM99 280q-4 46 -25 46q-17 0 -30 -48
q-4 -11 -9 -29t-12 -41q-16 -61 -16 -151q0 -17 7 -32q9 -19 23 -19q19 11 40 77q8 26 14 48.5t8 40.5l12 92zM148 514q-33 0 -40 36q-6 32 20 73q27 40 59 40q33 0 41 -36q5 -34 -23 -73q-27 -40 -57 -40zM179 631q-16 0 -33 -26q-15 -26 -12 -44q3 -17 17 -17q19 0 35 25
q17 26 14 44t-21 18z" />
    <glyph glyph-name="ae" unicode="&#xe6;" horiz-adv-x="462" 
d="M99 280q-4 46 -25 46q-17 0 -30 -48q-4 -11 -9 -29t-12 -41q-16 -61 -16 -151q0 -17 7 -32q9 -19 23 -19q19 11 40 77q8 26 14 48.5t8 40.5l12 92zM463 286q0 -7 -15 -67q-38 -150 -75 -201q-23 -29 -53 -29q-42 0 -68 47q-21 39 -21 85v6q-40 -127 -71 -127
q-37 0 -61 73q-26 -93 -67 -93q-59 0 -56 146q2 39 25 130q29 104 49 104q45 0 56 -23l18 -36l35 -12q-25 -73 -34 -179q-2 -23 4 -48q8 -35 25 -35q28 0 93 246l1 4q24 90 52 90q21 0 39 -15t18 -36q0 -74 -43 -166q-17 -38 -42 -77q0 -17 17 -39q16 -21 34 -21
q48 0 108 228q15 57 19 57q13 0 13 -12zM330 305q0 34 -14 34q-8 0 -12 -13q-37 -111 -37 -216q23 14 44 90q19 66 19 105z" />
    <glyph glyph-name="ccedilla" unicode="&#xe7;" horiz-adv-x="165" 
d="M47 -58q30 -16 34 -46q4 -25 -29 -40q-52 -24 -52 -25t-2 -1q-4 0 -6 14q-1 13 0 17q8 2 15.5 4.5t15.5 4.5q25 7 23 24q-2 13 -15 15.5t-27 4.5q-3 3 -4 6q0 7 1 10q5 7 17 24t31 46q-59 21 -59 140q0 53 19 128q25 97 61 97q14 0 31 -21q17 -22 17 -36q0 -24 -17 -24
q-13 0 -36 17q-41 -50 -41 -198q0 -23 8 -47q10 -31 31 -31q57 0 107 215q8 37 9 41q4 15 13 15q8 0 8 -17q0 -16 -18 -82q-11 -40 -19.5 -68t-15.5 -45q-33 -84 -69 -88q-34 -37 -34 -49q0 -4 3 -5z" />
    <glyph glyph-name="egrave" unicode="&#xe8;" horiz-adv-x="190" 
d="M225 284q0 -7 -15 -67q-38 -150 -75 -201q-23 -29 -53 -29q-42 0 -68 47q-20 40 -20 85q0 31 3 65t10 72q19 109 55 109q21 0 39 -15t18 -36q0 -74 -43 -166q-17 -38 -42 -77q0 -17 17 -39q16 -21 34 -21q48 0 108 228q15 57 19 57q13 0 13 -12zM92 303q0 34 -14 34
q-8 0 -12 -13q-37 -111 -37 -216q23 14 44 90q19 66 19 105zM57 514l-46 27q-2 1 -6 3.5t-11 6.5q-28 16 -28 31q0 16 20 21q21 4 33 -15l8 -8t16 -15q25 -24 25 -31q0 -4 -5 -14z" />
    <glyph glyph-name="eacute" unicode="&#xe9;" horiz-adv-x="190" 
d="M225 284q0 -7 -15 -67q-38 -150 -75 -201q-23 -29 -53 -29q-42 0 -68 47q-20 40 -20 85q0 31 3 65t10 72q19 109 55 109q21 0 39 -15t18 -36q0 -74 -43 -166q-17 -38 -42 -77q0 -17 17 -39q16 -21 34 -21q48 0 108 228q15 57 19 57q13 0 13 -12zM92 303q0 34 -14 34
q-8 0 -12 -13q-37 -111 -37 -216q23 14 44 90q19 66 19 105zM224 582q0 -15 -28 -31q-2 -2 -6.5 -4t-11.5 -6l-46 -27l-5 8q-6 7 -6 12q0 7 25 31l9 9t15 14q12 19 34 15q12 -2 16 -9t4 -12z" />
    <glyph glyph-name="ecircumflex" unicode="&#xea;" horiz-adv-x="190" 
d="M225 284q0 -7 -15 -67q-38 -150 -75 -201q-23 -29 -53 -29q-42 0 -68 47q-20 40 -20 85q0 31 3 65t10 72q19 109 55 109q21 0 39 -15t18 -36q0 -74 -43 -166q-17 -38 -42 -77q0 -17 17 -39q16 -21 34 -21q48 0 108 228q15 57 19 57q13 0 13 -12zM92 303q0 34 -14 34
q-8 0 -12 -13q-37 -111 -37 -216q23 14 44 90q19 66 19 105zM182 514q-6 0 -16 15l-7.5 12.5t-9.5 17.5q-10 16 -24 16t-30 -16l-8 -8t-10 -9.5t-9.5 -7t-7.5 -1.5q-7 3 -5 12q3 14 32 41q28 27 41 27q7 1 32 -36q25 -38 27 -54q1 -4 -5 -9z" />
    <glyph glyph-name="edieresis" unicode="&#xeb;" horiz-adv-x="190" 
d="M225 284q0 -7 -15 -67q-38 -150 -75 -201q-23 -29 -53 -29q-42 0 -68 47q-20 40 -20 85q0 31 3 65t10 72q19 109 55 109q21 0 39 -15t18 -36q0 -74 -43 -166q-17 -38 -42 -77q0 -17 17 -39q16 -21 34 -21q48 0 108 228q15 57 19 57q13 0 13 -12zM92 303q0 34 -14 34
q-8 0 -12 -13q-37 -111 -37 -216q23 14 44 90q19 66 19 105zM162 554q0 -37 -25 -37q-16 0 -28 13t-12 29q0 10 10.5 21t20.5 11q34 0 34 -37zM85 553q0 -37 -25 -37q-16 0 -28 13t-12 29q0 10 10.5 21t20.5 11q34 0 34 -37z" />
    <glyph glyph-name="igrave" unicode="&#xec;" horiz-adv-x="132" 
d="M167 282q0 -25 -35 -139q-26 -82 -33 -98q-20 -44 -48 -44q-31 0 -46 36q-11 30 -11 63q0 18 2 45t6 64t6 64.5t2 45.5q7 7 20 7q26 0 26 -14q-2 -8 -5.5 -22.5t-8.5 -36.5q-19 -91 -19 -155q0 -67 30 -67q14 0 34 50q1 1 33 102q5 16 11 38t13 51q6 24 14 24q9 0 9 -14z
M28 514l-45 27q-2 1 -6.5 3.5t-11.5 6.5q-28 16 -28 31q0 16 20 21q22 4 34 -15l23 -23q25 -24 25 -31q0 -4 -5 -14z" />
    <glyph glyph-name="iacute" unicode="&#xed;" horiz-adv-x="132" 
d="M167 282q0 -25 -35 -139q-26 -82 -33 -98q-20 -44 -48 -44q-31 0 -46 36q-11 30 -11 63q0 18 2 45t6 64t6 64.5t2 45.5q7 7 20 7q26 0 26 -14q-2 -8 -5.5 -22.5t-8.5 -36.5q-19 -91 -19 -155q0 -67 30 -67q14 0 34 50q1 1 33 102q5 16 11 38t13 51q6 24 14 24q9 0 9 -14z
M178 582q0 -15 -28 -31q-2 -2 -6.5 -4t-11.5 -6l-46 -27l-5 8q-6 7 -6 12q0 7 25 31l9 9t15 14q12 19 34 15q12 -2 16 -9t4 -12z" />
    <glyph glyph-name="icircumflex" unicode="&#xee;" horiz-adv-x="132" 
d="M167 282q0 -25 -35 -139q-26 -82 -33 -98q-20 -44 -48 -44q-31 0 -46 36q-11 30 -11 63q0 18 2 45t6 64t6 64.5t2 45.5q7 7 20 7q26 0 26 -14q-2 -8 -5.5 -22.5t-8.5 -36.5q-19 -91 -19 -155q0 -67 30 -67q14 0 34 50q1 1 33 102q5 16 11 38t13 51q6 24 14 24q9 0 9 -14z
M129 514q-6 0 -16 15l-7.5 12.5t-9.5 17.5q-10 16 -24 16t-30 -16l-8 -8t-10 -9.5t-9.5 -7t-7.5 -1.5q-7 3 -5 12q3 14 32 41q28 27 41 27q7 1 32 -36q25 -38 27 -54q1 -4 -5 -9z" />
    <glyph glyph-name="idieresis" unicode="&#xef;" horiz-adv-x="132" 
d="M167 282q0 -25 -35 -139q-26 -82 -33 -98q-20 -44 -48 -44q-31 0 -46 36q-11 30 -11 63q0 18 2 45t6 64t6 64.5t2 45.5q7 7 20 7q26 0 26 -14q-2 -8 -5.5 -22.5t-8.5 -36.5q-19 -91 -19 -155q0 -67 30 -67q14 0 34 50q1 1 33 102q5 16 11 38t13 51q6 24 14 24q9 0 9 -14z
M118 551q0 -37 -25 -37q-16 0 -28 13t-12 29q0 10 10.5 21t20.5 11q34 0 34 -37zM41 550q0 -37 -25 -37q-16 0 -27.5 13t-11.5 29q0 10 10.5 21t19.5 11q34 0 34 -37z" />
    <glyph glyph-name="eth" unicode="&#xf0;" horiz-adv-x="199" 
d="M102 -14q-37 0 -81 68q-22 -17 -26 -17q-8 0 -8 6q0 10 13 26q6 8 9 13t4 7q-10 39 -10 82q0 48 4 103t12 121q18 142 44 219q5 68 34 68q65 0 65 -87q0 -152 -36 -297q-11 -44 -25 -83.5t-31 -75.5q-3 -10 -24 -50q0 -18 20 -44q21 -25 38 -25q37 0 94 198q2 10 5.5 24
t8.5 33q4 21 13 21t9 -15q0 -39 -40 -156q-46 -139 -92 -139zM116 645q-41 -116 -63 -257q-19 -113 -19 -183q0 -12 1.5 -29t5.5 -39q43 84 69 203q22 106 22 214q0 75 -16 91z" />
    <glyph glyph-name="ntilde" unicode="&#xf1;" horiz-adv-x="283" 
d="M318 281q0 -28 -35 -136q-48 -145 -77 -145q-37 0 -51 71q-4 20 -7 62.5t-6 109.5q-5 -18 -18.5 -66.5t-33.5 -129.5q-10 -43 -31 -43q-31 0 -38 42l-4 75q-3 44 0 80l3 37l-9 19q1 27 5 36q6 16 25 16q20 0 20 -18q0 -6 -7 -26q-6 -20 -6 -32v-23q0 -13 -1 -31t-1 -32
v-22q0 -72 16 -72q5 0 13 26q14 58 21 76q14 45 23 83t11 72q3 42 14 50q51 -3 51 -32q0 22 -3 8t-8 -65q-5 -50 -7.5 -81.5t-2.5 -45.5q0 -108 28 -108q24 0 58 106q10 31 18.5 61.5t15.5 61.5t16 31q8 0 8 -15zM160 514q-8 5 -20 15t-26 25q-20 27 -38 27q-13 0 -19 -20
q-5 -15 -9 -15q-5 0 -5 18q0 39 26 45q17 4 52 -26q8 -9 17.5 -19.5t21.5 -13.5q2 -1 6 -1q11 0 34 38q2 2 3 3.5l1 1.5q4 -3 4 -16q0 -26 -14 -45t-27 -19q-3 0 -7 2z" />
    <glyph glyph-name="ograve" unicode="&#xf2;" horiz-adv-x="247" 
d="M282 287q0 -44 -26 -104q-23 -53 -61 -53q-5 0 -35 12q-2 -11 -5 -25t-7 -31q-8 -23 -14.5 -39t-11.5 -24q-20 -32 -49 -32q-73 0 -73 149q0 95 16 128q0 -3 0 -2q0 2 -1 9t-1 11v7q1 9 6 14q2 5 4 15t6 27q7 34 34 34q26 0 54 -22q29 -22 37 -45q8 -24 8 -145
q14 -11 25 -11q35 0 52 39q8 15 21 79q4 18 12 18q9 0 9 -9zM131 139q0 11 -2 27t-6 37t-6 36.5t-2 26.5q0 7 1.5 22t1.5 22q0 35 -32 35q-21 0 -37 -94q-15 -81 -15 -123q0 -108 44 -108q11 0 29 40q24 52 24 79zM57 514l-46 27q-2 1 -6 3.5t-11 6.5q-28 16 -28 31
q0 16 20 21q21 4 33 -15l8 -8t16 -15q25 -24 25 -31q0 -4 -5 -14z" />
    <glyph glyph-name="oacute" unicode="&#xf3;" horiz-adv-x="247" 
d="M282 287q0 -44 -26 -104q-23 -53 -61 -53q-5 0 -35 12q-2 -11 -5 -25t-7 -31q-8 -23 -14.5 -39t-11.5 -24q-20 -32 -49 -32q-73 0 -73 149q0 95 16 128q0 -3 0 -2q0 2 -1 9t-1 11v7q1 9 6 14q2 5 4 15t6 27q7 34 34 34q26 0 54 -22q29 -22 37 -45q8 -24 8 -145
q14 -11 25 -11q35 0 52 39q8 15 21 79q4 18 12 18q9 0 9 -9zM131 139q0 11 -2 27t-6 37t-6 36.5t-2 26.5q0 7 1.5 22t1.5 22q0 35 -32 35q-21 0 -37 -94q-15 -81 -15 -123q0 -108 44 -108q11 0 29 40q24 52 24 79zM224 582q0 -15 -28 -31q-2 -2 -6.5 -4t-11.5 -6l-46 -27
l-5 8q-6 7 -6 12q0 7 25 31l9 9t15 14q12 19 34 15q12 -2 16 -9t4 -12z" />
    <glyph glyph-name="ocircumflex" unicode="&#xf4;" horiz-adv-x="247" 
d="M282 287q0 -44 -26 -104q-23 -53 -61 -53q-5 0 -35 12q-2 -11 -5 -25t-7 -31q-8 -23 -14.5 -39t-11.5 -24q-20 -32 -49 -32q-73 0 -73 149q0 95 16 128q0 -3 0 -2q0 2 -1 9t-1 11v7q1 9 6 14q2 5 4 15t6 27q7 34 34 34q26 0 54 -22q29 -22 37 -45q8 -24 8 -145
q14 -11 25 -11q35 0 52 39q8 15 21 79q4 18 12 18q9 0 9 -9zM131 139q0 11 -2 27t-6 37t-6 36.5t-2 26.5q0 7 1.5 22t1.5 22q0 35 -32 35q-21 0 -37 -94q-15 -81 -15 -123q0 -108 44 -108q11 0 29 40q24 52 24 79zM195 514q-6 0 -16 15l-7.5 12.5t-9.5 17.5q-10 16 -24 16
t-30 -16l-8 -8t-10 -9.5t-9.5 -7t-7.5 -1.5q-7 3 -5 12q3 14 32 41q28 27 41 27q7 1 32 -36q25 -38 27 -54q1 -4 -5 -9z" />
    <glyph glyph-name="otilde" unicode="&#xf5;" horiz-adv-x="247" 
d="M282 287q0 -44 -26 -104q-23 -53 -61 -53q-5 0 -35 12q-2 -11 -5 -25t-7 -31q-8 -23 -14.5 -39t-11.5 -24q-20 -32 -49 -32q-73 0 -73 149q0 95 16 128q0 -3 0 -2q0 2 -1 9t-1 11v7q1 9 6 14q2 5 4 15t6 27q7 34 34 34q26 0 54 -22q29 -22 37 -45q8 -24 8 -145
q14 -11 25 -11q35 0 52 39q8 15 21 79q4 18 12 18q9 0 9 -9zM131 139q0 11 -2 27t-6 37t-6 36.5t-2 26.5q0 7 1.5 22t1.5 22q0 35 -32 35q-21 0 -37 -94q-15 -81 -15 -123q0 -108 44 -108q11 0 29 40q24 52 24 79zM160 514q-8 5 -20 15t-26 25q-20 27 -38 27q-13 0 -19 -20
q-5 -15 -9 -15q-5 0 -5 18q0 39 26 45q17 4 52 -26q8 -9 17.5 -19.5t21.5 -13.5q2 -1 6 -1q11 0 34 38q2 2 3 3.5l1 1.5q4 -3 4 -16q0 -26 -14 -45t-27 -19q-3 0 -7 2z" />
    <glyph glyph-name="odieresis" unicode="&#xf6;" horiz-adv-x="247" 
d="M282 287q0 -44 -26 -104q-23 -53 -61 -53q-5 0 -35 12q-2 -11 -5 -25t-7 -31q-8 -23 -14.5 -39t-11.5 -24q-20 -32 -49 -32q-73 0 -73 149q0 95 16 128q0 -3 0 -2q0 2 -1 9t-1 11v7q1 9 6 14q2 5 4 15t6 27q7 34 34 34q26 0 54 -22q29 -22 37 -45q8 -24 8 -145
q14 -11 25 -11q35 0 52 39q8 15 21 79q4 18 12 18q9 0 9 -9zM131 139q0 11 -2 27t-6 37t-6 36.5t-2 26.5q0 7 1.5 22t1.5 22q0 35 -32 35q-21 0 -37 -94q-15 -81 -15 -123q0 -108 44 -108q11 0 29 40q24 52 24 79zM162 554q0 -37 -25 -37q-16 0 -28 13t-12 29q0 10 10.5 21
t20.5 11q34 0 34 -37zM85 553q0 -37 -25 -37q-16 0 -28 13t-12 29q0 10 10.5 21t20.5 11q34 0 34 -37z" />
    <glyph glyph-name="divide" unicode="&#xf7;" horiz-adv-x="600" 
d="M301 408q-23 0 -39.5 17t-16.5 39q0 23 16.5 39.5t38.5 16.5t38.5 -17t16.5 -39q0 -21 -16.5 -38.5t-37.5 -17.5zM53 277h494v-48h-494v48zM301 -13q-23 0 -39.5 16.5t-16.5 38.5q0 23 16.5 39.5t38.5 16.5t38.5 -17t16.5 -39q0 -21 -16.5 -38t-37.5 -17z" />
    <glyph glyph-name="oslash" unicode="&#xf8;" horiz-adv-x="289" 
d="M74 141v-13q0 -108 44 -108q11 0 29 40q24 52 24 79q0 13 -1.5 30t-5.5 37zM159 234q-2 12 -3 20t-1 12q0 7 1.5 22t1.5 22q0 35 -32 35q-21 0 -37 -94q-4 -23 -7 -42t-5 -35zM40 147q2 89 16 121q0 -3 0 -2q0 2 -1 9t-1 11v7q1 9 6 14q2 5 4 15t6 27q7 34 34 34
q26 0 54 -22q31 -23 38 -46q2 -5 3 -17.5t2 -32.5l43 31l15 -21l-57 -41q1 -14 1 -30v-33q14 -11 25 -11q35 0 52 39q8 15 21 79q4 18 12 18q9 0 9 -9q0 -44 -26 -104q-23 -53 -61 -53q-5 0 -35 12q-2 -11 -5 -25t-7 -31q-8 -23 -14.5 -39t-11.5 -24q-20 -32 -49 -32
q-67 0 -73 125l-43 -32l-14 21z" />
    <glyph glyph-name="ugrave" unicode="&#xf9;" horiz-adv-x="276" 
d="M194 11q-22 0 -38 33q-4 6 -18 52q-7 -17 -15 -35.5t-16 -38.5q-18 -31 -47 -31q-26 0 -41 30q-12 25 -12 54q0 21 1 51.5t3 71.5q4 102 11 113q5 8 17 8q10 0 18 -8.5t8 -18.5t-4 -23q-2 -10 -3.5 -15.5t-2.5 -7.5q-7 -39 -10.5 -85.5t-3.5 -100.5q0 -44 19 -44
q15 0 28 25q5 10 9 19.5t8 19.5q22 52 33 130q1 2 2.5 13t4.5 30l3.5 24.5t1.5 18.5v32q0 10 -1 6q3 26 20 24q29 0 29 -16q0 -5 -5.5 -16.5t-6.5 -20.5q0 -4 -2.5 -22.5t-7.5 -52.5q-4 -28 -6 -51t-2 -41q0 -95 29 -95q27 0 58 106q12 43 36 132q4 15 12 15t8 -12
q0 -35 -34 -140q-42 -133 -83 -133zM57 514l-46 27q-2 1 -6 3.5t-11 6.5q-28 16 -28 31q0 16 20 21q21 4 33 -15l8 -8t16 -15q25 -24 25 -31q0 -4 -5 -14z" />
    <glyph glyph-name="uacute" unicode="&#xfa;" horiz-adv-x="276" 
d="M194 11q-22 0 -38 33q-4 6 -18 52q-7 -17 -15 -35.5t-16 -38.5q-18 -31 -47 -31q-26 0 -41 30q-12 25 -12 54q0 21 1 51.5t3 71.5q4 102 11 113q5 8 17 8q10 0 18 -8.5t8 -18.5t-4 -23q-2 -10 -3.5 -15.5t-2.5 -7.5q-7 -39 -10.5 -85.5t-3.5 -100.5q0 -44 19 -44
q15 0 28 25q5 10 9 19.5t8 19.5q22 52 33 130q1 2 2.5 13t4.5 30l3.5 24.5t1.5 18.5v32q0 10 -1 6q3 26 20 24q29 0 29 -16q0 -5 -5.5 -16.5t-6.5 -20.5q0 -4 -2.5 -22.5t-7.5 -52.5q-4 -28 -6 -51t-2 -41q0 -95 29 -95q27 0 58 106q12 43 36 132q4 15 12 15t8 -12
q0 -35 -34 -140q-42 -133 -83 -133zM224 582q0 -15 -28 -31q-2 -2 -6.5 -4t-11.5 -6l-46 -27l-5 8q-6 7 -6 12q0 7 25 31l9 9t15 14q12 19 34 15q12 -2 16 -9t4 -12z" />
    <glyph glyph-name="ucircumflex" unicode="&#xfb;" horiz-adv-x="276" 
d="M194 11q-22 0 -38 33q-4 6 -18 52q-7 -17 -15 -35.5t-16 -38.5q-18 -31 -47 -31q-26 0 -41 30q-12 25 -12 54q0 21 1 51.5t3 71.5q4 102 11 113q5 8 17 8q10 0 18 -8.5t8 -18.5t-4 -23q-2 -10 -3.5 -15.5t-2.5 -7.5q-7 -39 -10.5 -85.5t-3.5 -100.5q0 -44 19 -44
q15 0 28 25q5 10 9 19.5t8 19.5q22 52 33 130q1 2 2.5 13t4.5 30l3.5 24.5t1.5 18.5v32q0 10 -1 6q3 26 20 24q29 0 29 -16q0 -5 -5.5 -16.5t-6.5 -20.5q0 -4 -2.5 -22.5t-7.5 -52.5q-4 -28 -6 -51t-2 -41q0 -95 29 -95q27 0 58 106q12 43 36 132q4 15 12 15t8 -12
q0 -35 -34 -140q-42 -133 -83 -133zM185 514q-6 0 -16 15l-7.5 12.5t-9.5 17.5q-10 16 -24 16t-30 -16l-8 -8t-10 -9.5t-9.5 -7t-7.5 -1.5q-7 3 -5 12q3 14 32 41q28 27 41 27q7 1 32 -36q25 -38 27 -54q1 -4 -5 -9z" />
    <glyph glyph-name="udieresis" unicode="&#xfc;" horiz-adv-x="276" 
d="M194 11q-22 0 -38 33q-4 6 -18 52q-7 -17 -15 -35.5t-16 -38.5q-18 -31 -47 -31q-26 0 -41 30q-12 25 -12 54q0 21 1 51.5t3 71.5q4 102 11 113q5 8 17 8q10 0 18 -8.5t8 -18.5t-4 -23q-2 -10 -3.5 -15.5t-2.5 -7.5q-7 -39 -10.5 -85.5t-3.5 -100.5q0 -44 19 -44
q15 0 28 25q5 10 9 19.5t8 19.5q22 52 33 130q1 2 2.5 13t4.5 30l3.5 24.5t1.5 18.5v32q0 10 -1 6q3 26 20 24q29 0 29 -16q0 -5 -5.5 -16.5t-6.5 -20.5q0 -4 -2.5 -22.5t-7.5 -52.5q-4 -28 -6 -51t-2 -41q0 -95 29 -95q27 0 58 106q12 43 36 132q4 15 12 15t8 -12
q0 -35 -34 -140q-42 -133 -83 -133zM162 554q0 -37 -25 -37q-16 0 -28 13t-12 29q0 10 10.5 21t20.5 11q34 0 34 -37zM85 553q0 -37 -25 -37q-16 0 -28 13t-12 29q0 10 10.5 21t20.5 11q34 0 34 -37z" />
    <glyph glyph-name="yacute" unicode="&#xfd;" horiz-adv-x="240" 
d="M292 -91q-23 4 -37.5 5.5t-21.5 1.5q-16 0 -61 -15q0 -6 0.5 -16.5t1 -21.5t1 -21.5t0.5 -16.5q0 -229 -147 -229q-24 0 -44.5 9t-35.5 24.5t-23.5 36.5t-8.5 45q0 73 90 138q71 50 136 64q0 107 -15 167q-4 -10 -10.5 -24t-15.5 -33q-17 -32 -41 -32q-32 0 -48 33
q-13 26 -13 61q0 49 9 142q1 14 2 29l2 30q7 45 26 45q17 0 15 -14l-11 -102q-4 -40 -6 -70t-2 -51q0 -81 26 -81t65 150q3 25 9 70t14 112q3 25 27 26q16 1 16 -13q0 -23 -21 -98q-5 -19 -7 -69t-1 -134q0 -29 3 -90l2 -44q5 1 15 3.5t24 6.5q32 8 45 8q44 0 44 -23
q0 -5 -3 -9zM145 -109q-88 -24 -147 -83q-52 -51 -52 -107q0 -16 5.5 -31t15.5 -27t23.5 -19t28.5 -7q65 0 99 73q27 58 27 129v72zM-79 24q18 0 51 101q11 32 21 69t20 79q6 23 14 23t8 -15q0 -31 -39 -152q-44 -131 -69 -131q-23 0 -23 9q0 8 6 11.5t11 5.5zM224 582
q0 -15 -28 -31q-2 -2 -6.5 -4t-11.5 -6l-46 -27l-5 8q-6 7 -6 12q0 7 25 31l9 9t15 14q12 19 34 15q12 -2 16 -9t4 -12z" />
    <glyph glyph-name="thorn" unicode="&#xfe;" horiz-adv-x="357" 
d="M304 257q-7 -49 -16 -91.5t-22 -79.5q-30 -88 -61 -88q-22 0 -40 25q-17 26 -17 50l2 207q-32 32 -41 32q-12 0 -13 -15q1 3 1 -24q-10 -65 -24 -139t-31 -159q-19 -1 -19 12q0 8 6.5 23t7.5 20q22 106 42 302q-16 39 -16 63q0 50 25 50q21 0 21 -39q0 -9 -1.5 -27.5
t-1.5 -27.5q0 -11 42 -33q43 -22 43 -50q0 -14 -1.5 -36.5t-5.5 -54.5q-8 -59 -6 -91l-3 -9q0 -53 28 -53q16 0 44 82q17 51 27 87.5t14 60.5q-5 42 11 42q10 0 10 -11q0 5 -1.5 -2t-3.5 -26z" />
    <glyph glyph-name="ydieresis" unicode="&#xff;" horiz-adv-x="240" 
d="M292 -91q-23 4 -37.5 5.5t-21.5 1.5q-16 0 -61 -15q0 -6 0.5 -16.5t1 -21.5t1 -21.5t0.5 -16.5q0 -229 -147 -229q-24 0 -44.5 9t-35.5 24.5t-23.5 36.5t-8.5 45q0 73 90 138q71 50 136 64q0 107 -15 167q-4 -10 -10.5 -24t-15.5 -33q-17 -32 -41 -32q-32 0 -48 33
q-13 26 -13 61q0 49 9 142q1 14 2 29l2 30q7 45 26 45q17 0 15 -14l-11 -102q-4 -40 -6 -70t-2 -51q0 -81 26 -81t65 150q3 25 9 70t14 112q3 25 27 26q16 1 16 -13q0 -23 -21 -98q-5 -19 -7 -69t-1 -134q0 -29 3 -90l2 -44q5 1 15 3.5t24 6.5q32 8 45 8q44 0 44 -23
q0 -5 -3 -9zM145 -109q-88 -24 -147 -83q-52 -51 -52 -107q0 -16 5.5 -31t15.5 -27t23.5 -19t28.5 -7q65 0 99 73q27 58 27 129v72zM-79 24q18 0 51 101q11 32 21 69t20 79q6 23 14 23t8 -15q0 -31 -39 -152q-44 -131 -69 -131q-23 0 -23 9q0 8 6 11.5t11 5.5zM162 554
q0 -37 -25 -37q-16 0 -28 13t-12 29q0 10 10.5 21t20.5 11q34 0 34 -37zM85 553q0 -37 -25 -37q-16 0 -28 13t-12 29q0 10 10.5 21t20.5 11q34 0 34 -37z" />
    <glyph glyph-name="Lslash" unicode="&#x141;" horiz-adv-x="671" 
d="M571 538q0 33 -15 69q-20 44 -47 44q-52 0 -92 -274q72 26 106 56q48 40 48 105zM332 105q-140 97 -253 97q-48 0 -48 -32q0 -45 54 -102q61 -66 137 -66q22 0 42 8t35 21.5t24 32.5t9 41zM354 275q3 37 3 48q-6 0 -17 -1.5t-22 -3.5t-22 -3.5t-17 -1.5q-43 0 -43 15
q0 8 11 19q11 -8 33 -8q48 0 82 17q27 162 33 186q40 159 93 159q46 0 100 -91q25 -42 26 -45q10 -21 10 -49q0 -26 -35 -64q-24 -27 -57 -49q-20 -13 -50 -28.5t-70 -32.5q-1 -8 -1.5 -19t-2.5 -25l65 28l11 -26l-81 -34q-4 -30 -10.5 -68.5t-14.5 -86.5q35 -22 71 -46
t73 -51q33 -24 56 -39t36 -22q43 -22 88 -19q-10 -16 -39 -16q-46 0 -120 49q-76 50 -120 78t-57 35q-11 -23 -21.5 -38.5t-18.5 -23.5q-47 -45 -132 -45q-74 0 -141 62q-65 63 -65 137q0 10 5.5 21t13.5 19.5t18.5 14t21.5 5.5q71 0 162 -32q21 -8 54 -22t78 -36q1 8 9 86
l1 16l-59 -26l-12 25z" />
    <glyph glyph-name="lslash" unicode="&#x142;" horiz-adv-x="199" 
d="M116 645q-83 -273 -83 -413q38 59 69 167q30 100 30 155q0 75 -16 91zM0 181q0 87 18 219q19 137 45 214q5 68 34 68q66 0 66 -100q0 -86 -32 -197q-16 -55 -36 -100t-44 -82l70 30l11 -26l-101 -43q0 -70 32 -114q22 -30 41 -30q37 0 94 198q2 10 5.5 24t8.5 33
q4 21 13 21t9 -15q0 -39 -40 -156q-46 -139 -92 -139q-47 0 -76 62q-22 45 -25 103l-60 -26l-12 25z" />
    <glyph glyph-name="OE" unicode="&#x152;" horiz-adv-x="950" 
d="M375 427q0 90 -26 153q-36 86 -115 86q-77 0 -134 -172q-47 -143 -47 -256q0 -221 135 -221q187 0 187 410zM942 108q0 -51 -124 -90q-99 -31 -168 -31q-125 0 -207 49q-60 37 -79 89q-58 -139 -169 -139q-95 0 -148 80q-47 71 -47 170q0 98 23 201q27 118 76 186
q8 12 16.5 24t16.5 23q24 30 45 30q5 0 23 -8q8 5 13 5q199 -13 199 -275q0 -66 -6 -123q40 39 120 80q-49 17 -73 38q-29 27 -29 73q0 101 154 152q109 36 235 36q46 0 64 -7q35 -11 35 -46q0 -30 -12 -30q-12 11 -34 28q-17 9 -48 9q-109 0 -215 -30q-151 -43 -151 -124
q0 -35 51 -54q36 -13 80 -13q13 0 93 6q35 2 56.5 3.5t29.5 0.5q13 -9 12 -30q-2 -21 -16 -26q-23 14 -35 14q-83 0 -182 -38q-113 -44 -145 -109q-1 -2 -4 -16t-9 -39q0 -81 102 -118q73 -27 169 -27q38 0 97 10q67 10 93 24q66 34 66 42q0 2 -3 2v19q35 0 35 -21z" />
    <glyph glyph-name="oe" unicode="&#x153;" horiz-adv-x="476" 
d="M131 139q0 11 -2 27t-6 37t-6 36.5t-2 26.5q0 7 1.5 22t1.5 22q0 35 -32 35q-21 0 -37 -94q-15 -81 -15 -123q0 -108 44 -108q11 0 29 40q24 52 24 79zM476 286q0 -7 -15 -67q-38 -150 -75 -201q-23 -29 -53 -29q-42 0 -68 47q-21 39 -21 85v21t1 20q-21 -32 -50 -32
q-5 0 -35 12q-2 -11 -5 -25t-7 -31q-8 -23 -14.5 -39t-11.5 -24q-20 -32 -49 -32q-73 0 -73 149q0 95 16 128q0 -3 0 -2q0 2 -1 9t-1 11v7q1 9 6 14q2 5 4 15t6 27q7 34 34 34q26 0 54 -22q29 -22 37 -45q8 -24 8 -145q14 -11 25 -11q35 0 52 39q8 15 21 79q1 2 1 4t1 4l2 6
q21 75 48 75q21 0 39 -15t18 -36q0 -74 -43 -166q-17 -38 -42 -77q0 -17 17 -39q16 -21 34 -21q48 0 108 228q15 57 19 57q13 0 13 -12zM343 305q0 34 -14 34q-8 0 -12 -13q-37 -111 -37 -216q23 14 44 90q19 66 19 105z" />
    <glyph glyph-name="Scaron" unicode="&#x160;" horiz-adv-x="429" 
d="M401 63q0 -47 -53 -71q-43 -20 -95 -20q-143 0 -256 59q-23 12 -23 29q0 10 11 15q3 -2 9.5 -8.5l17.5 -17.5q5 -5 67 -20q85 -21 161 -21q108 0 108 62q0 36 -28 48l-230 99q-69 30 -69 120t83 258q41 80 92 80q59 0 108 -46q51 -46 55 -104q2 -34 3.5 -65.5t1.5 -62.5
q0 -60 -22 -60q-23 0 -23 34q0 72 -9 159q-5 38 -28 72q-27 41 -61 41q-49 0 -101 -130q-46 -113 -46 -176q0 -33 18.5 -62.5t48.5 -41.5l179 -75q81 -35 81 -95zM176 869q5 1 16 -14q3 -6 7.5 -14t9.5 -15.5t11.5 -12.5t13.5 -5q11 0 30 17l6.5 6.5t10.5 9.5q12 12 17 10
q7 -3 5 -12q-3 -14 -32 -42q-29 -27 -41 -27q-8 0 -33 37q-24 36 -26 54q-2 5 5 8z" />
    <glyph glyph-name="scaron" unicode="&#x161;" horiz-adv-x="165" 
d="M110 82q0 -34 -14 -64q-18 -34 -51 -34q-30 0 -52 25q-16 16 -16 32q0 19 8 21q7 0 7 -16q17 -38 37 -38q46 0 46 78q0 34 -20 105q-11 36 -21 63q-4 -14 -10.5 -35.5t-14.5 -50.5q-10 -34 -26 -34q-2 0 -8 2q41 155 41 221q0 27 26 27q29 0 29 -19q0 -3 -1.5 -10
t-3.5 -15t-3.5 -15.5t-1.5 -12.5q0 -38 24 -117q25 -76 25 -113zM5 612q5 1 16 -14q3 -6 7.5 -14t9.5 -15.5t11.5 -12.5t13.5 -5q11 0 30 17l6.5 6.5t10.5 9.5q12 12 17 10q7 -3 5 -12q-3 -14 -32 -42q-29 -27 -41 -27q-8 0 -33 37q-24 36 -26 54q0 5 5 8z" />
    <glyph glyph-name="Ydieresis" unicode="&#x178;" horiz-adv-x="402" 
d="M389 636q-12 -49 -20 -86.5t-12 -63.5q-8 -54 -12 -118t-4 -141q0 -22 1.5 -54t3.5 -75q6 -86 6 -128q0 -84 -49 -158q-56 -83 -135 -83q-40 0 -128 32q-99 37 -99 69q0 18 26 18q9 0 67 -46t97 -46q175 0 175 291q0 26 -1.5 65.5t-5.5 93.5q-34 -100 -51 -130
q-44 -78 -103 -78q-75 0 -109 66q-27 52 -27 133q0 29 3 73t8 104q12 118 12 177q0 6 -1 19t-1 19q0 31 18 31q8 0 49 -34q0 -6 -5 -28q-4 -12 -5.5 -19.5t-2.5 -10.5q-14 -88 -21.5 -169.5t-7.5 -159.5q0 -177 81 -177q55 0 105 99q44 87 58 195q8 69 15.5 150t12.5 177
q1 19 28 18q33 -1 34 -25zM296 807q0 -37 -25 -37q-16 0 -28 13t-12 29q0 10 10.5 21t20.5 11q34 0 34 -37zM219 806q0 -37 -25 -37q-16 0 -28 13t-12 29q0 10 10.5 21t20.5 11q34 0 34 -37z" />
    <glyph glyph-name="Zcaron" unicode="&#x17d;" horiz-adv-x="466" 
d="M470 546q0 -16 -36 -34l-6 -3q-28 -14 -262 -269q-25 -27 -78 -98q-60 -83 -60 -99q0 -12 38 -12q32 0 107 12q38 7 66.5 10t48.5 3q37 0 81 -6q62 -8 62 -21q0 -16 -25 -16q-6 0 -15 1t-18.5 2.5t-18.5 2.5t-15 1q-20 0 -47.5 -3t-62.5 -8l-101 -15q-8 -1 -21 -4.5
t-32 -8.5q-38 -11 -52 -11q-21 0 -33 19q-12 15 -12 37q0 27 59 116q27 40 53.5 75t52.5 64l153 174q82 94 82 105q0 13 -36 13q-129 0 -258 -36q-32 -9 -31 -25q-23 0 -23 16q0 25 51 42q30 9 107 24q75 14 124.5 21t72.5 7q34 0 59.5 -21t25.5 -55zM176 869q5 1 16 -14
q3 -6 7.5 -14t9.5 -15.5t11.5 -12.5t13.5 -5q11 0 30 17l6.5 6.5t10.5 9.5q12 12 17 10q7 -3 5 -12q-3 -14 -32 -42q-29 -27 -41 -27q-8 0 -33 37q-24 36 -26 54q-2 5 5 8z" />
    <glyph glyph-name="zcaron" unicode="&#x17e;" horiz-adv-x="274" 
d="M283 -68q-27 8 -52 8q-23 0 -45 -6q5 -40 7.5 -61.5t2.5 -25.5q0 -77 -30 -141q-38 -83 -106 -83q-49 0 -86 34q-37 33 -37 81q0 118 212 210q-12 52 -61 79q-26 -23 -41 -23q-35 0 -35 25q0 26 51 25q50 57 69 103q25 59 25 148q0 69 -44 69q-28 0 -53 -33
q-20 -28 -25 -58t-9 -30q-12 0 -12 16q0 27 20 75q27 63 65 63q42 0 66 -29.5t24 -74.5q0 -145 -90 -260q36 -20 50 -35q15 -17 31 -53q43 9 76 9q36 0 36 -19q0 -9 -9 -13zM169 -147q0 20 -2 38t-6 35q-67 -15 -125 -73q-60 -62 -60 -128q0 -33 19 -54.5t52 -21.5
q63 0 96 75q26 60 26 129zM51 613q5 1 16 -14q3 -6 7.5 -14t9.5 -15.5t11.5 -12.5t13.5 -5q11 0 30 17l6.5 6.5t10.5 9.5q12 12 17 10q7 -3 5 -12q-3 -14 -32 -42q-29 -27 -41 -27q-8 0 -33 37q-24 36 -26 54q-2 5 5 8z" />
    <glyph glyph-name="florin" unicode="&#x192;" horiz-adv-x="419" 
d="M414 673q0 -10 -12 -21t-22 -11q-20 0 -39 19q-18 20 -31 20q-20 0 -39 -66q-13 -43 -21 -106q-2 -26 -5 -53l-6 -54q98 0 112 -8q-14 -11 -55 -14q-15 -1 -30 -1t-30 -1q-3 -50 -11 -113.5t-21 -141.5q-9 -53 -30 -156q-50 -203 -176 -203q-25 0 -43 27q-19 25 -19 52
q0 12 8 22t20 10q8 0 13 -5.5t8.5 -14.5t6 -20t5.5 -21q9 -21 35 -21q75 0 104 209q13 96 22.5 189.5t17.5 186.5q-82 0 -82 11q0 3 9 5q13 1 31.5 3t43.5 5q21 169 45 215q8 16 22.5 32t36.5 32q43 33 77 33q18 0 36.5 -11.5t18.5 -28.5z" />
    <glyph glyph-name="circumflex" unicode="&#x2c6;" horiz-adv-x="190" 
d="M182 514q-6 0 -16 15l-7.5 12.5t-9.5 17.5q-10 16 -24 16t-30 -16l-8 -8t-10 -9.5t-9.5 -7t-7.5 -1.5q-7 3 -5 12q3 14 32 41q28 27 41 27q7 1 32 -36q25 -38 27 -54q1 -4 -5 -9z" />
    <glyph glyph-name="tilde" unicode="&#x2dc;" 
d="M160 514q-8 5 -20 15t-26 25q-20 27 -38 27q-13 0 -19 -20q-5 -15 -9 -15q-5 0 -5 18q0 39 26 45q17 4 52 -26q8 -9 17.5 -19.5t21.5 -13.5q2 -1 6 -1q11 0 34 38q2 2 3 3.5l1 1.5q4 -3 4 -16q0 -26 -14 -45t-27 -19q-3 0 -7 2z" />
    <glyph glyph-name="endash" unicode="&#x2013;" horiz-adv-x="300" 
d="M294 210q0 -10 -13 -18.5t-25 -10.5q-55 -1 -102 -2t-88 -3q-7 -1 -18 -1.5t-25 -2.5q-19 -1 -19 6q0 18 22 22q11 4 52 5q26 1 68.5 2t102.5 3q5 1 12 1.5t17 2.5q16 3 16 -4z" />
    <glyph glyph-name="emdash" unicode="&#x2014;" horiz-adv-x="600" 
d="M586 210q0 -10 -13 -18.5t-25 -10.5q-74 -1 -188 -2t-272 -3q-7 -1 -18 -1.5t-25 -2.5q-19 -1 -19 6q0 18 22 22q6 2 19 3t33 2q8 0 236 -3q145 -3 234 12q16 3 16 -4z" />
    <glyph glyph-name="quoteleft" unicode="&#x2018;" horiz-adv-x="126" 
d="M98 477q3 -11 -16 -11q-15 0 -16 9q-2 11 -11 38t-23 70q-21 62 -19 76q30 1 35 -14q7 -25 19.5 -66.5t30.5 -101.5z" />
    <glyph glyph-name="quoteright" unicode="&#x2019;" horiz-adv-x="126" 
d="M122 645q0 -22 -39 -100q-17 -45 -27 -45q-15 0 -16 16q20 43 57 163q25 -16 25 -34z" />
    <glyph glyph-name="quotesinglbase" unicode="&#x201a;" horiz-adv-x="126" 
d="M122 95q0 -23 -39 -99q-17 -45 -27 -45q-15 0 -16 16q19 40 57 162q25 -16 25 -34z" />
    <glyph glyph-name="quotedblleft" unicode="&#x201c;" horiz-adv-x="248" 
d="M186 495q-9 -1 -14.5 -1.5t-7.5 -0.5q-10 1 -13 14q-13 45 -25 90.5t-23 91.5q12 0 18.5 -1.5t10.5 -6t5.5 -13t4.5 -21.5q9 -29 20 -67t24 -85zM137 477q0 -12 -17 -12q-14 0 -15 10q-2 10 -10.5 36t-23.5 69q-21 60 -19 79q30 0 35 -14q8 -28 20.5 -69.5t29.5 -98.5z
" />
    <glyph glyph-name="quotedblright" unicode="&#x201d;" horiz-adv-x="248" 
d="M200 652q-8 -43 -28 -86q-11 -20 -21 -39.5t-20 -39.5q-10 -22 -20 -22q-12 0 -12 12q0 6 18 44l34 72q4 14 12 33t19 44q19 -14 18 -18zM147 666q-3 -25 -46 -115q-30 -65 -39 -65q-14 0 -14 14t52 102q4 14 11 34t18 48q19 -12 18 -18z" />
    <glyph glyph-name="quotedblbase" unicode="&#x201e;" horiz-adv-x="248" 
d="M200 102q-8 -43 -28 -86q-11 -20 -21 -39.5t-20 -39.5q-11 -21 -20 -21q-12 0 -12 12q0 6 18 44l34 71q4 14 12 33t19 44q19 -14 18 -18zM147 116q-3 -25 -46 -115q-30 -64 -39 -64q-14 0 -14 14q0 15 52 101q4 14 11 34t18 48q19 -12 18 -18z" />
    <glyph glyph-name="dagger" unicode="&#x2020;" horiz-adv-x="490" 
d="M421 404q-23 -2 -50.5 -4.5t-59.5 -5.5l-139 -560l-71 -51l-6 4l19 71q42 150 73 283.5t54 252.5q-56 3 -70 3q-59 0 -101 -14l-1 3q19 14 32.5 23.5t22.5 14.5l22 12q16 9 24 9h80l2 21q6 55 9 92.5t2 57.5q13 7 31.5 17.5t42.5 24.5l6 -1q1 -68 -18 -186l-5 -27
q84 0 176 9l1 -4q-20 -13 -39 -24t-37 -21z" />
    <glyph glyph-name="daggerdbl" unicode="&#x2021;" horiz-adv-x="552" 
d="M492 426q-44 -27 -89 -27q-5 0 -48 3l-9 -36q-23 -84 -40.5 -151t-29.5 -118l-9 -36q35 -2 60.5 -3.5t39.5 -1.5q17 0 32.5 1t31.5 3l-20 -14q-30 -21 -50 -28q-22 -8 -56 -8q-1 0 -13 0.5t-35 1.5q-17 -73 -19 -138q0 -5 0.5 -12.5t1.5 -18.5l-75 -47q-3 -2 -4 -1
q-4 4 -4 26q1 74 32 195q-13 1 -50 3q-15 1 -25 1h-15q-28 0 -58 -6l-2 4q7 4 13.5 7.5t12.5 7.5q53 32 93 32q7 0 18 -1t25 -3q20 72 41.5 156.5t46.5 184.5q-123 9 -111 9q-20 0 -35 -3l-6 2l10.5 7t18.5 13q34 25 80 25q13 0 27 -0.5t29 -1.5q10 58 14.5 99.5t4.5 66.5
q11 7 30 18t45 28l2 -1l1.5 -16.5t0.5 -7.5q0 -59 -28 -165l-7 -26h24q69 0 143 3l1 -2q-8 -5 -18.5 -10.5t-22.5 -13.5z" />
    <glyph glyph-name="bullet" unicode="&#x2022;" horiz-adv-x="396" 
d="M342 335q0 -74 -51 -128q-51 -53 -125 -53q-53 0 -86 47q-30 40 -30 97q0 186 174 186q73 0 100 -47q18 -32 18 -102z" />
    <glyph glyph-name="ellipsis" unicode="&#x2026;" horiz-adv-x="600" 
d="M130 29q0 -38 -30 -38t-30 28q0 12 9.5 23.5t20.5 11.5q30 0 30 -25zM530 29q0 -38 -30 -38t-30 28q0 12 9.5 23.5t20.5 11.5q30 0 30 -25zM330 29q0 -38 -30 -38t-30 28q0 12 9.5 23.5t20.5 11.5q30 0 30 -25z" />
    <glyph glyph-name="perthousand" unicode="&#x2030;" horiz-adv-x="547" 
d="M444 629q0 -12 -41 -56q-37 -38 -84 -108t-105 -172q-119 -210 -131 -293q-2 -9 -10 -9t-14 8.5t-6 17.5q18 77 122 262q40 72 76 131t68 108q-9 -1 -39 -17q-29 -15 -46 -15q-23 0 -43 1.5t-37 5.5q-7 -47 -11.5 -75t-8.5 -38q-17 -50 -56 -50q-40 0 -61 32
q-17 28 -17 69q0 61 16 126q24 93 65 93q61 0 71 -127q35 -16 55 -16q72 0 170 91q6 5 17 27q8 17 25 25q6 0 15.5 -7.5t9.5 -13.5zM351 158q0 -171 -80 -171q-76 0 -76 137q0 103 39 157q4 5 7 9t5 8q3 0 10 -1t10 -1q53 0 73 -45q12 -29 12 -93zM122 521q-16 30 -17 69
q-2 23 -22 23q-46 -88 -46 -186q0 -74 32 -74q20 0 35 25q12 19 17 44q-1 19 -1 43q0 25 2 56zM326 172q0 99 -48 99q-24 0 -38 -74q-5 -27 -8 -50.5t-3 -43.5q0 -96 39 -96q34 0 49 70q9 43 9 95zM524 158q0 -171 -80 -171q-76 0 -76 137q0 103 39 157q4 5 7 9t5 8
q3 0 10 -1t10 -1q53 0 73 -45q12 -29 12 -93zM499 172q0 99 -48 99q-24 0 -38 -74q-5 -27 -8 -50.5t-3 -43.5q0 -96 39 -96q34 0 49 70q9 43 9 95z" />
    <glyph glyph-name="guilsinglleft" unicode="&#x2039;" horiz-adv-x="240" 
d="M102 267q61 -70 98 -165l-69 -40h-4q-38 103 -91 160v9l28 23q38 30 71.5 62t64.5 66h3l11 -13q-35 -45 -98 -92z" />
    <glyph glyph-name="guilsinglright" unicode="&#x203a;" horiz-adv-x="240" 
d="M47 62l-11 13q30 36 111 104q-17 19 -40 55.5t-52 93.5l-7 13l69 41h4q41 -110 94 -161v-8q-50 -37 -91 -75t-74 -76h-3z" />
    <glyph glyph-name="fraction" unicode="&#x2044;" horiz-adv-x="167" 
d="M271 650q6 0 15.5 -7.5t9.5 -13.5q0 -12 -41 -56q-37 -38 -84 -108t-105 -172q-118 -207 -130 -293q-2 -9 -10 -9t-14 8.5t-6 17.5q19 79 120 262q41 73 77 132.5t68 106.5l51 74q39 54 49 58z" />
    <glyph glyph-name="trademark" unicode="&#x2122;" horiz-adv-x="944" 
d="M910 228q-11 -21 -20 -21q-41 0 -61 107q-7 35 -10 69t-3 68v30t1 41q1 24 1.5 42t0.5 30q-1 -2 -1.5 -4.5t-2.5 -7.5q-8 -28 -20 -69t-29 -97q-47 -147 -85 -147q-49 0 -73 137l-6 42.5t-18 129.5q-15 -23 -45 -120q-31 -99 -56 -141q-47 -78 -103 -78q-38 0 -65 38l9 4
q49 -10 59 -10q77 0 151 245q34 112 34 185q0 34 24 34q14 0 45 -23q-8 -21 -8 -104q0 -55 3 -103t10 -90q17 -104 45 -104q20 0 64 134q20 60 33.5 110t21.5 92q1 2 1 13q0 12 1 32q1 27 10 31q26 -2 37 -4q26 -5 28 -17q-11 -23 -21 -137q-9 -101 -9 -147q0 -38 1.5 -64.5
t3.5 -42.5q12 -74 52 -83zM522 707q-2 -14 -18 -14q-51 0 -98.5 -2t-93.5 -6q-15 -85 -25 -174t-15 -184q-1 -20 5 -72q-11 3 -24 9q-15 15 -15 57q0 28 2.5 69.5t7.5 96.5q5 56 8 97t3 69v14t-1 11q-27 0 -69 -3q-155 -11 -155 -39q0 -19 60 -19q69 0 141 22
q-20 -30 -37 -34q-57 -16 -112 -16q-79 0 -79 59q0 31 38 42q11 1 88 12q29 4 79.5 7.5t124.5 6.5q60 2 100.5 3.5t62.5 1.5q24 0 22 -14z" />
    <glyph glyph-name="minus" unicode="&#x2212;" horiz-adv-x="600" 
d="M53 282h494v-58h-494v58z" />
    <glyph glyph-name="uni2400" unicode="&#x2400;" horiz-adv-x="0" 
 />
    <glyph glyph-name="fi" unicode="&#xfb01;" horiz-adv-x="177" 
d="M101 -174q0 126 -31 204q-26 13 -40 41q-12 -146 -12 -241q0 -20 2 -42.5t6 -47.5q13 -73 34 -73q19 0 31 71q5 27 7.5 49t2.5 39zM181 237q6 67 6 82q7 7 20 7q26 0 26 -14q-2 -8 -5.5 -22.5t-8.5 -36.5q-19 -91 -19 -155q0 -67 30 -67q14 0 34 50q1 1 33 102
q5 16 11 38t13 51q6 24 14 24q9 0 9 -14q0 -25 -35 -139q-26 -82 -33 -98q-20 -44 -48 -44q-31 0 -46 36q-12 28 -12 63q0 13 1 18q-1 -1 -1 -2q-11 -43 -35 -63q-12 -11 -39 -21q28 -115 28 -186q0 -138 -34 -196q-5 -8 -25 -8q-81 0 -78 190q6 406 69 814q8 7 31 7
q16 0 30 -12q-25 -37 -34 -90q-21 -123 -34.5 -225.5t-18.5 -187.5q21 -3 38 -32q4 -6 20 -47q29 -8 55 54q7 16 16 47t22 77zM262 553q0 -37 -25 -37q-16 0 -28 13t-12 29q0 10 10.5 21t20.5 11q34 0 34 -37z" />
    <glyph glyph-name="fl" unicode="&#xfb02;" horiz-adv-x="177" 
d="M293 645q-41 -116 -63 -257q-19 -113 -19 -183q0 -11 2 -28.5t6 -42.5q90 169 90 420q0 75 -16 91zM101 -174q0 126 -31 204q-26 13 -40 41q-12 -146 -12 -241q0 -20 2 -42.5t6 -47.5q13 -73 34 -73q19 0 31 71q5 27 7.5 49t2.5 39zM190 75q-42 -39 -94 -43
q28 -115 28 -186q0 -138 -34 -196q-5 -8 -25 -8q-81 0 -78 190q6 406 69 814q8 7 31 7q16 0 30 -12q-25 -37 -34 -90q-21 -123 -34.5 -225.5t-18.5 -187.5q21 -3 38 -32q4 -6 20 -47q50 -3 95 42q-3 19 -3 70q0 48 4 103t12 121q18 142 44 219q5 68 34 68q65 0 65 -87
q0 -112 -21 -235q-25 -143 -69 -223q-14 -26 -24 -33q0 -19 19 -50q19 -34 37 -34q37 0 94 198q2 10 5.5 24t8.5 33q4 21 13 21t9 -15q0 -39 -40 -156q-46 -139 -92 -139q-54 0 -89 89z" />
    <glyph glyph-name="percent" horiz-adv-x="474" 
d="M444 629q0 -12 -41 -56q-37 -38 -84 -108t-105 -172q-119 -210 -131 -293q-2 -9 -10 -9t-14 8.5t-6 17.5q18 77 122 262q40 72 76 131t68 108q-9 -1 -39 -17q-29 -15 -46 -15q-23 0 -43 1.5t-37 5.5q-7 -47 -11.5 -75t-8.5 -38q-17 -50 -56 -50q-40 0 -61 32
q-17 28 -17 69q0 61 16 126q24 93 65 93q61 0 71 -127q35 -16 55 -16q72 0 170 91q6 5 17 27q8 17 25 25q6 0 15.5 -7.5t9.5 -13.5zM414 157q0 -171 -80 -171q-76 0 -76 137q0 103 39 157q4 5 7 9t5 8q3 0 10 -1t10 -1q53 0 73 -45q12 -29 12 -93zM122 521q-16 30 -17 69
q-2 23 -22 23q-46 -88 -46 -186q0 -74 32 -74q20 0 35 25q12 19 17 44q-1 19 -1 43q0 25 2 56zM389 171q0 99 -48 99q-24 0 -38 -74q-5 -27 -8 -50.5t-3 -43.5q0 -96 39 -96q34 0 49 70q9 43 9 95z" />
  </font>
</defs>
</svg>
